<?xml version="1.0" standalone="no"?>
<!DOCTYPE svg PUBLIC "-//W3C//DTD SVG 1.1//EN" "http://www.w3.org/Graphics/SVG/1.1/DTD/svg11.dtd" >
<svg xmlns="http://www.w3.org/2000/svg" xmlns:xlink="http://www.w3.org/1999/xlink" version="1.1">
<metadata>
Created by FontForge 20170731 at Mon Oct 23 14:06:27 2023
 By Aleksey,,,
URW Software, Copyright 1994 by URW
</metadata>
<defs>
<font id="MicrogrammaD-BoldExte" horiz-adv-x="1857" >
  <font-face 
    font-family="Microgramma D Extended"
    font-weight="700"
    font-stretch="normal"
    units-per-em="2048"
    panose-1="0 0 0 0 0 0 0 0 0 0"
    ascent="1638"
    descent="-410"
    x-height="969"
    cap-height="1366"
    bbox="-356 -582 3873 2073"
    underline-thickness="245"
    underline-position="-449"
    unicode-range="U+0020-FB02"
  />
<missing-glyph horiz-adv-x="512" 
 />
    <glyph glyph-name=".notdef" horiz-adv-x="512" 
 />
    <glyph glyph-name=".null" horiz-adv-x="0" 
 />
    <glyph glyph-name="nonmarkingreturn" horiz-adv-x="682" 
 />
    <glyph glyph-name="space" unicode=" " horiz-adv-x="512" 
 />
    <glyph glyph-name="exclam" unicode="!" horiz-adv-x="681" 
d="M137 1366h410v-780h-410v780zM113 428h458v-428h-458v428z" />
    <glyph glyph-name="quotedbl" unicode="&#x22;" horiz-adv-x="1064" 
d="M432 764h-315l-41 602h395zM950 764h-315l-41 602h397z" />
    <glyph glyph-name="numbersign" unicode="#" 
d="M559 1366h260l-47 -332h410l47 332h260l-47 -332h272l-31 -219h-272l-37 -264h273l-31 -219h-273l-47 -332h-260l47 332h-409l-47 -332h-258l45 332h-273l31 219h272l39 264h-274l31 219h274zM741 815l-36 -264h409l37 264h-410z" />
    <glyph glyph-name="dollar" unicode="$" 
d="M807 1497h223v-115q166 1 279.5 -4.5t204 -21.5t143 -42t86.5 -70t45.5 -100t9.5 -138v-62h-362q0 64 -13 83q-20 30 -111 38q-60 6 -282 10v-229q11 0 49 -1t99 -2.5t116 -2.5q192 -5 288 -23.5t157 -64.5q102 -80 102 -316q0 -138 -24 -223t-88 -138.5t-164.5 -74
t-264.5 -20.5l-237 2h-33v-144h-223v144h-76q-118 0 -204.5 3t-162 12t-125.5 22t-91.5 36t-65 51t-39.5 69.5t-21.5 89.5t-5.5 114l2 94h363l2 -24q1 -85 14.5 -111t59.5 -35q65 -14 293 -14q32 0 57 2v254q-269 3 -342.5 6.5t-161.5 17.5q-145 23 -206.5 111.5
t-61.5 273.5q0 176 52 268.5t171 127.5q126 34 459 34q53 0 90 -2v115zM807 846v227q-217 0 -295 -10q-92 -12 -92 -96q0 -92 98 -107q72 -11 289 -14zM1030 541v-246q53 -2 125 -2q85 0 134.5 2.5t86.5 9t53 21t22.5 34t6.5 52.5q0 54 -22 80.5t-76 33.5q-72 9 -330 15z
" />
    <glyph glyph-name="percent" unicode="%" horiz-adv-x="2746" 
d="M584 1386q356 0 458 -57q50 -28 65 -94t15 -256q0 -91 -2.5 -144.5t-8.5 -95.5t-20 -64t-32.5 -36t-50.5 -25q-115 -43 -426 -43q-331 0 -441 47q-44 19 -64 54t-28 105.5t-8 215.5q0 88 3.5 141.5t11 94.5t25 63.5t41 37t62.5 24.5q53 14 166.5 23t233.5 9zM578 1174
q-192 0 -246 -23q-28 -13 -39.5 -52t-11.5 -116q0 -97 14 -134.5t55 -49.5q63 -17 228 -17q186 0 253 23q26 8 38 48t12 126q0 94 -19 143q-6 20 -26 28.5t-78 14.5q-88 9 -180 9zM2007 1399l141 -162l-1407 -1270l-143 162zM2144 801q163 0 289.5 -15t181.5 -41
q40 -18 58 -50.5t25 -99t7 -204.5q0 -79 -1.5 -128t-6.5 -91t-13 -64.5t-23.5 -41t-34.5 -28t-50 -18.5q-128 -40 -434 -40q-315 0 -426 51q-32 15 -49.5 34t-29 63t-14.5 105.5t-3 172.5q0 143 10.5 209.5t38.5 99t90 51.5q129 35 385 35zM2144 586q-174 0 -231 -23
q-28 -10 -39.5 -49t-11.5 -121q0 -101 14 -137.5t55 -48.5q65 -14 211 -14q210 0 271 22q28 7 39.5 48t11.5 126q0 97 -14.5 134t-55.5 46q-87 17 -250 17z" />
    <glyph glyph-name="ampersand" unicode="&#x26;" horiz-adv-x="1939" 
d="M1370 748h350q2 -33 2 -82q0 -116 -3.5 -163.5t-14.5 -86.5l317 -158l-131 -266l-284 147q-44 -63 -122 -95t-219.5 -45t-402.5 -13q-334 0 -472.5 16.5t-209.5 63.5q-69 47 -97 126.5t-28 229.5q0 130 24 197.5t82.5 101.5t176.5 51q-76 31 -104.5 90.5t-28.5 190.5
q0 133 43.5 202.5t144.5 98.5q54 15 151.5 20.5t311.5 5.5q345 0 457 -10t172 -47q61 -38 84.5 -106.5t23.5 -204.5l-2 -80h-364q-3 65 -8 89.5t-17 35.5q-27 24 -266 24q-275 0 -305 -12q-39 -14 -39 -68q0 -33 14.5 -48.5t69.5 -41.5l692 -338l2 17l4 65v31q0 37 -4 62z
M1272 303l-690 313q-51 -5 -76 -11t-41 -26.5t-19.5 -48.5t-3.5 -86q0 -32 1 -50t8.5 -37.5t15 -28.5t30.5 -18.5t44.5 -12.5t68 -6t90 -3.5t119.5 -0.5q24 0 176 2q186 1 220.5 3t56.5 11z" />
    <glyph glyph-name="quotesingle" unicode="'" horiz-adv-x="546" 
d="M432 764h-315l-41 602h395z" />
    <glyph glyph-name="parenleft" unicode="(" horiz-adv-x="804" 
d="M735 1411v-256h-59q-115 0 -160.5 -16t-60.5 -62q-17 -63 -17 -446q0 -219 4.5 -310t16.5 -122q17 -40 59.5 -52.5t157.5 -11.5l59 -2v-262l-73 2q-232 -2 -329 19.5t-157 87.5q-68 75 -88 203.5t-20 484.5q0 323 21.5 447t90.5 196q58 60 153.5 80t317.5 20h84z" />
    <glyph glyph-name="parenright" unicode=")" horiz-adv-x="804" 
d="M68 1411h84q222 0 317.5 -20t153.5 -80q69 -72 90.5 -196t21.5 -447q0 -356 -20 -484.5t-88 -203.5q-62 -66 -158.5 -87t-329.5 -20l-71 -2v262l61 2q127 -2 168.5 15t54.5 77t13 404q0 239 -5.5 339t-19.5 128q-19 32 -65 44.5t-150 12.5h-57v256z" />
    <glyph glyph-name="asterisk" unicode="*" horiz-adv-x="1024" 
d="M422 1366h190v-203l197 54l51 -181l-188 -53l114 -172l-153 -109l-121 172l-123 -161l-149 114l120 162l-194 66l61 178l195 -66v199z" />
    <glyph glyph-name="plus" unicode="+" 
d="M807 573h-547v246h547v481h246v-481h544v-246h-544v-481h-246v481z" />
    <glyph glyph-name="comma" unicode="," horiz-adv-x="698" 
d="M145 406h437v-398q0 -128 -11.5 -191.5t-42.5 -101.5q-40 -50 -105 -66t-230 -16q-60 0 -105 2v215h31h37q54 0 78 26t24 85v39h-113v406z" />
    <glyph glyph-name="hyphen" unicode="-" horiz-adv-x="864" 
d="M2 629h862v-277h-864z" />
    <glyph glyph-name="period" unicode="." horiz-adv-x="669" 
d="M117 362h436v-362h-436v362z" />
    <glyph glyph-name="slash" unicode="/" horiz-adv-x="1253" 
d="M1323 1661l-1130 -1956h-261l1129 1956h262z" />
    <glyph glyph-name="zero" unicode="0" 
d="M930 1382q396 0 549 -24q121 -17 195.5 -85t94.5 -179q11 -63 14 -129t3 -281q0 -217 -3 -283t-14 -129q-20 -111 -94.5 -179t-195.5 -85q-150 -24 -549 -24q-401 0 -551 24q-121 17 -196 85t-95 179q-12 60 -14 120t-2 310q0 205 2.5 269t13.5 123q20 111 95 179t196 85
q153 24 551 24zM903 1028q-85 0 -132.5 -0.5t-99 -7t-75 -13t-49.5 -27.5t-34 -40t-16 -61t-9 -81t-1 -108q0 -73 0.5 -113t9 -84.5t15.5 -64t33 -41.5t49 -28t75 -13t99 -7.5t133 -0.5h154.5t113 7t85.5 11.5t54 28t37 40t15.5 63t9.5 83v113.5v113t-9.5 82.5t-16 62.5
t-37 39.5t-54 27.5t-85.5 12t-112 7h-153z" />
    <glyph glyph-name="one" unicode="1" 
d="M713 1366h657v-1366h-416v1010h-108l-404 -340l-229 268z" />
    <glyph glyph-name="two" unicode="2" 
d="M512 858h-401v60q0 83 4.5 139t20.5 107.5t38 82.5t67 58t97 40t138 22.5t180 12t233 2.5q231 0 343.5 -1.5t197 -9t117.5 -19t69 -35.5q69 -44 95 -124t26 -243q0 -120 -13.5 -188.5t-46.5 -118.5q-44 -66 -144 -101t-273 -44q-425 -27 -542 -37t-138 -19
q-38 -15 -52 -39t-16 -75v-15h1247v-313h-1628q-6 68 -6 156q0 310 31 395q32 95 107.5 140t236.5 67q6 1 68 5.5t210 16.5t309 25q67 5 104 8.5t70.5 11t47.5 15t24.5 23.5t12.5 33t2 48q0 60 -14 86.5t-52 36.5q-27 9 -85.5 11.5t-223.5 2.5q-359 0 -416 -24
q-26 -9 -34.5 -41t-10.5 -111v-47z" />
    <glyph glyph-name="three" unicode="3" 
d="M498 889h-398v82q0 71 6 121t24.5 94t45 72.5t77 52t110 36t153.5 21.5t199 11.5t254 2.5q297 0 424.5 -15.5t191.5 -59.5t91.5 -115.5t27.5 -194.5q0 -145 -46.5 -207t-174.5 -88q109 -24 159 -56.5t69.5 -91.5t19.5 -177q0 -152 -45 -228t-158 -114q-81 -28 -257 -39.5
t-507 -11.5q-261 0 -387 22.5t-191 81.5q-54 51 -72 131t-18 273h396l2 -25q0 -83 14 -112t57 -40q62 -10 342 -10q59 0 171 3.5t136 6.5q65 8 89 32.5t24 82.5q0 88 -61 105q-26 6 -64.5 7.5t-228.5 4.5h-240v293h316q80 0 126 4.5t75.5 17.5t39.5 34t10 58q0 29 -3 45
t-18.5 30.5t-36 20.5t-68.5 10.5t-102.5 5.5t-151.5 1q-274 0 -334 -10q-64 -11 -79 -46q-9 -22 -9 -91v-31z" />
    <glyph glyph-name="four" unicode="4" 
d="M1845 561v-307h-266v-254h-395v254h-1090v522l811 590h674v-805h266zM1184 561v488h-84l-633 -435v-53h717z" />
    <glyph glyph-name="five" unicode="5" 
d="M150 1366h1519v-293h-889h-94q-120 0 -172 10v-147q0 -69 -4 -102q42 38 67.5 52t65.5 23q111 27 399 27q113 0 196 -3.5t155.5 -14t121.5 -25.5t89 -41t63 -58t39 -79t21.5 -101t5.5 -127q0 -202 -44.5 -303.5t-150.5 -144.5q-82 -32 -189 -43.5t-339 -11.5
q-312 0 -452 8t-243 31q-119 28 -169 106.5t-50 239.5q0 30 2 53h396q3 -79 24 -98q23 -22 107.5 -30.5t273.5 -8.5q225 0 286.5 3.5t92.5 16.5q29 13 40 50.5t11 119.5q0 77 -17.5 108t-68.5 40q-102 20 -432 20q-94 0 -149 -3.5t-89.5 -13.5t-46.5 -26.5t-12 -44.5v-16
h-364v827z" />
    <glyph glyph-name="six" unicode="6" 
d="M1726 983h-389q-3 47 -22 61q-15 12 -41 16t-119 7q-132 6 -231 6q-287 0 -357 -31q-32 -17 -44.5 -60.5t-12.5 -141.5q0 -43 2 -76q54 52 113.5 76.5t157 34.5t282.5 10q104 0 182 -4t146 -14t114.5 -25.5t84 -41.5t60 -58t38 -78.5t21 -100t5.5 -125.5q0 -185 -43 -277
t-149 -132q-65 -26 -210 -35.5t-464 -9.5q-295 0 -426.5 22.5t-200.5 85.5q-48 45 -69.5 106.5t-30 176.5t-8.5 352q0 171 4.5 245.5t19.5 141.5t46.5 111.5t86.5 76.5t150 48.5t222 24t319 7.5q349 0 493.5 -23t204.5 -87q37 -38 50 -98t15 -191zM866 578
q-143 0 -197.5 -4.5t-84.5 -16.5q-66 -28 -66 -123q0 -60 18.5 -91t61.5 -40q46 -12 258 -12q248 0 356 10q54 5 77.5 35t23.5 96q0 73 -19 97q-28 35 -139 43q-74 6 -289 6z" />
    <glyph glyph-name="seven" unicode="7" 
d="M156 1366h1560v-317l-774 -1049h-524l770 1020h-1032v346z" />
    <glyph glyph-name="eight" unicode="8" 
d="M393 698q-141 11 -195.5 76.5t-54.5 226.5q0 152 48 231t161 111q134 39 576 39q502 0 628 -57q84 -38 121 -114t37 -210q0 -161 -54.5 -226.5t-195.5 -76.5q76 -12 109 -22.5t59 -30.5q54 -38 76.5 -104t22.5 -185q0 -157 -50 -233.5t-174 -108.5q-74 -19 -182 -24.5
t-397 -5.5q-328 0 -445 9.5t-194 41.5q-88 38 -125 111.5t-37 209.5q0 131 29 201.5t96 104.5q43 21 141 36zM887 1075q-84 0 -134.5 -1t-93.5 -6.5t-63.5 -12.5t-35 -21.5t-18 -31.5t-3.5 -46q0 -61 18 -80q25 -28 135 -33q59 -3 221 -3q276 0 331 9q58 9 69 41q6 16 6 66
q0 91 -76 105q-79 14 -356 14zM928 545q-268 0 -329 -12q-58 -12 -70 -48q-7 -19 -7 -71q0 -89 51 -106t316 -17q292 0 361 13q64 13 77 50q8 21 8 70q0 52 -14 74.5t-51 31.5q-54 15 -342 15z" />
    <glyph glyph-name="nine" unicode="9" 
d="M160 397h395l2 -16q3 -39 12 -52t39 -22q66 -16 279 -16q180 0 267.5 7.5t126.5 26.5t52 60q12 54 15 217q-66 -75 -173.5 -100t-363.5 -25q-157 0 -258 6t-183 25.5t-125.5 48t-73 83t-38 120.5t-8.5 170q0 78 5 133t22 104t40.5 80t69 57t99.5 39.5t139.5 23
t180.5 12.5t232 3q315 0 473 -20.5t230 -71.5q56 -39 83 -103.5t37.5 -187.5t10.5 -366q0 -262 -21 -365t-86 -162q-52 -46 -131.5 -70t-226.5 -36q-160 -16 -494 -16q-224 0 -339.5 15.5t-180.5 53.5q-65 39 -86.5 108t-21.5 236zM922 1075q-73 0 -120 -0.5t-92 -3.5
t-70.5 -7t-48.5 -12.5t-33 -18t-18 -26t-10 -34.5t-2 -45q0 -37 2.5 -57.5t17.5 -39t34 -26t65.5 -13.5t98.5 -7t145 -1q343 0 395 25q32 13 44.5 40.5t12.5 82.5q0 60 -15.5 87t-55.5 38q-62 18 -350 18z" />
    <glyph glyph-name="colon" unicode=":" horiz-adv-x="669" 
d="M117 969h436v-363h-436v363zM117 362h436v-362h-436v362z" />
    <glyph glyph-name="semicolon" unicode=";" horiz-adv-x="698" 
d="M145 406h437v-398q0 -128 -11.5 -191.5t-42.5 -101.5q-40 -50 -105 -66t-230 -16q-60 0 -105 2v215h31h37q54 0 78 26t24 85v39h-113v406zM145 969h437v-363h-437v363z" />
    <glyph glyph-name="less" unicode="&#x3c;" horiz-adv-x="1024" 
d="M954 1343v-393l-469 -268l469 -266v-393l-886 497v328z" />
    <glyph glyph-name="equal" unicode="=" 
d="M260 1024h1337v-246h-1337v246zM260 614h1337v-245h-1337v245z" />
    <glyph glyph-name="greater" unicode="&#x3e;" horiz-adv-x="1024" 
d="M68 1343l886 -495v-328l-886 -497v393l469 266l-469 268v393z" />
    <glyph glyph-name="question" unicode="?" horiz-adv-x="1445" 
d="M385 877h-358v71q0 122 12.5 186t44.5 107q63 82 212 113.5t466 31.5q106 0 184 -3.5t146 -12.5t114 -23t83.5 -38t59.5 -53.5t36.5 -73t20 -93.5t5.5 -118q0 -166 -40.5 -244.5t-141.5 -110.5q-72 -23 -289 -59q-85 -15 -104 -29.5t-17 -64.5h-358v53q0 126 29 186
t104 91q36 15 76 23.5t188 31.5q117 19 158 47t41 90q0 87 -78 105q-53 14 -250 14q-166 0 -212.5 -4t-78.5 -21t-40.5 -46.5t-10.5 -125.5zM424 365h442v-365h-442v365z" />
    <glyph glyph-name="at" unicode="@" horiz-adv-x="1951" 
d="M1229 1036h297l-39 -440v-16q0 -46 18 -61t72 -15q44 0 63.5 24t27 86t7.5 199q0 175 -16 247.5t-60 100.5q-37 25 -115.5 31t-353.5 6q-433 0 -547.5 -7.5t-174.5 -39.5q-71 -37 -98 -120.5t-27 -264.5q0 -226 7.5 -326t28.5 -149q35 -83 166 -109q67 -14 361 -14
q144 0 228.5 1t160 4.5t111.5 8.5t68 16t46.5 23.5t30.5 34.5l174 -63q-36 -82 -90 -117q-52 -36 -126 -52.5t-213.5 -23t-428.5 -6.5q-246 0 -336.5 7.5t-157.5 33.5q-174 64 -217 235q-28 123 -28 392q0 281 35 406t135 200q101 77 276 94q103 10 526 10q305 0 424 -6
t183 -23q168 -46 217 -213q26 -95 26 -315q0 -162 -16 -248.5t-57 -146.5q-38 -54 -103.5 -74t-200.5 -20q-124 0 -186.5 9.5t-93 32.5t-45.5 72h-8q-31 -66 -101 -90t-229 -24q-164 0 -253 24t-127 80t-38 160q0 298 117 389q54 44 134.5 60t252.5 16q131 0 186 -22.5
t90 -90.5h9zM991 836q-60 0 -98 -2.5t-69 -10t-47.5 -19.5t-27.5 -34t-14.5 -48.5t-3.5 -68.5q0 -49 15.5 -69.5t56.5 -28.5q62 -10 147 -10q158 0 209 33q43 27 43 149q0 67 -40 88t-171 21z" />
    <glyph glyph-name="A" unicode="A" horiz-adv-x="2015" 
d="M1577 0l-117 231h-903l-117 -231h-475l723 1366h647l715 -1366h-473zM1315 530l-264 519h-82l-264 -519h610z" />
    <glyph glyph-name="B" unicode="B" horiz-adv-x="1859" 
d="M96 0v1366h981q324 -2 385 -6q167 -12 232 -88t65 -262q0 -146 -40.5 -215.5t-143.5 -98.5q135 -23 185 -93.5t50 -235.5q0 -146 -40.5 -225.5t-131.5 -110.5q-59 -20 -138.5 -25t-420.5 -6h-983zM492 827h585q196 0 234 17q45 17 45 96q0 84 -62 98q-23 4 -217 6h-585
v-217zM492 328h587q186 2 221 4t58 12q49 20 49 102q0 47 -15.5 71.5t-50.5 31.5q-20 4 -262 6h-587v-227z" />
    <glyph glyph-name="C" unicode="C" horiz-adv-x="1861" 
d="M1393 526h417q1 -44 3 -82.5t2 -46.5q0 -166 -47.5 -249.5t-161.5 -120.5q-83 -26 -209.5 -36.5t-354.5 -10.5q-402 0 -568 16t-249 63q-67 38 -101 100t-46 167q-10 102 -10 348q0 233 7.5 335t30.5 158q19 48 44.5 80t73.5 58t110 40.5t166 24.5t230.5 13t313.5 3
q273 0 394 -13t192 -50q87 -44 122.5 -129t35.5 -250v-67h-416q-3 68 -8.5 91t-24.5 38q-44 38 -413 38q-197 0 -272 -8t-105 -32q-37 -31 -51.5 -102.5t-14.5 -225.5v-117t9.5 -85t15 -64.5t35 -41t51 -28t81.5 -11.5t107 -7h146q279 0 348 11q79 13 100 55q16 32 17 132v6
z" />
    <glyph glyph-name="D" unicode="D" horiz-adv-x="1966" 
d="M96 0v1366h985q263 0 344 -4t168 -23q206 -41 267 -231q23 -71 30.5 -153.5t7.5 -252.5q0 -267 -28 -392.5t-103 -194.5q-78 -71 -209.5 -93t-476.5 -22h-985zM506 348h579q79 0 126.5 1t95 7.5t72.5 14t49 27t33 40t17 59t9.5 78t1.5 103.5q0 126 -12 190.5t-43 98.5
q-32 36 -96.5 46.5t-256.5 10.5h-575v-676z" />
    <glyph glyph-name="E" unicode="E" horiz-adv-x="1650" 
d="M96 1366h1512v-322h-1102v-198h1046v-301h-1046v-217h1110v-328h-1520v1366z" />
    <glyph glyph-name="F" unicode="F" horiz-adv-x="1538" 
d="M96 1366h1444v-322h-1028v-258h977v-313h-977v-473h-416v1366z" />
    <glyph glyph-name="G" unicode="G" horiz-adv-x="1945" 
d="M924 774h952v-37q0 -280 -14 -434q-24 -238 -269 -287q-103 -22 -237 -29t-416 -7q-354 0 -498.5 19t-230.5 77q-38 25 -61.5 54t-41 71.5t-25.5 112.5t-11.5 159.5t-3.5 231.5q0 133 3 213.5t21.5 161.5t39.5 122.5t77.5 82t113.5 55.5t169.5 28.5t223.5 15.5t296 2
q383 0 551 -30t235 -111q43 -51 58.5 -125.5t17.5 -226.5h-416q-2 61 -7.5 81.5t-25.5 33.5q-31 22 -122 29t-326 7q-265 0 -339 -12q-94 -16 -125 -69q-27 -47 -30 -183v-92q0 -172 12 -241t46 -97q26 -21 62 -28.5t126 -10.5l244 -4q317 0 392.5 12.5t93.5 51.5
q11 24 11 92v39h-546v272z" />
    <glyph glyph-name="H" unicode="H" horiz-adv-x="2004" 
d="M96 1366h436v-489h941v489h436v-1366h-436v494h-941v-494h-436v1366z" />
    <glyph glyph-name="I" unicode="I" horiz-adv-x="628" 
d="M96 1366h436v-1366h-436v1366z" />
    <glyph glyph-name="J" unicode="J" horiz-adv-x="1536" 
d="M1032 1366h416v-817q0 -193 -18.5 -284.5t-69.5 -151.5q-68 -77 -196.5 -105t-415.5 -28q-302 0 -441.5 25t-208.5 91q-51 51 -71.5 128.5t-20.5 221.5q0 52 4 144h416q0 -112 6.5 -150.5t28.5 -60.5q25 -25 83.5 -35t174.5 -10q120 0 183.5 10.5t90.5 36.5q25 20 32 53
t7 123v809z" />
    <glyph glyph-name="K" unicode="K" horiz-adv-x="1941" 
d="M96 1366h416v-496h227l541 504h637l-791 -678l856 -696h-630l-613 522h-227v-522h-416v1366z" />
    <glyph glyph-name="L" unicode="L" horiz-adv-x="1503" 
d="M96 1366h436v-1018h971v-348h-1407v1366z" />
    <glyph glyph-name="M" unicode="M" horiz-adv-x="2506" 
d="M96 1366h754l405 -887l408 887h750v-1366h-410l10 1022h-69l-514 -1022h-347l-514 1022h-73l10 -1022h-410v1366z" />
    <glyph glyph-name="N" unicode="N" horiz-adv-x="2091" 
d="M96 1366h729l715 -1018h43l-10 1018h424v-1366h-723l-719 1020h-45l10 -1020h-424v1366z" />
    <glyph glyph-name="O" unicode="O" horiz-adv-x="2011" 
d="M1006 1386q430 0 577 -17t225 -77t107 -188t29 -420q0 -293 -29 -421.5t-107 -188.5t-225 -77t-573 -17q-433 0 -581 17t-226 77q-79 61 -107 189t-28 429q0 286 28.5 413t106.5 187t225.5 77t577.5 17zM1006 1032q-136 0 -206.5 -1.5t-129.5 -5.5t-84 -14.5t-41 -24.5
t-29 -40q-19 -35 -26 -101t-7 -198q0 -127 12.5 -181t49.5 -83q41 -32 123 -40.5t342 -8.5q249 0 331.5 9t124.5 40q36 28 49 83t13 179q0 152 -10.5 222t-38.5 104q-25 29 -63.5 41t-123 16t-286.5 4z" />
    <glyph glyph-name="P" unicode="P" horiz-adv-x="1775" 
d="M96 0v1366h936q188 0 250 -2t121 -10q132 -20 202 -71t100 -150.5t30 -278.5q0 -227 -48 -332t-171 -149q-69 -23 -164.5 -31t-315.5 -8h-524v-334h-416zM512 676h520q147 2 178.5 4.5t57.5 17.5q29 19 40 52t11 104q0 74 -16 109.5t-56 48.5q-22 7 -49.5 8.5t-165.5 3.5
h-520v-348z" />
    <glyph glyph-name="Q" unicode="Q" horiz-adv-x="2037" 
d="M2107 276l-157 -290l-133 96q-59 -46 -138.5 -66.5t-227.5 -28t-460 -7.5q-415 0 -562.5 17.5t-225.5 76.5q-78 60 -106.5 188t-28.5 422q0 293 28.5 420.5t106.5 187.5t225.5 77t577.5 17t577 -17t225 -77q80 -62 108 -190t28 -428q0 -196 -13 -307zM1102 870l424 -268
q2 20 2 43q0 152 -10.5 222t-38.5 104q-25 29 -63.5 41t-123 16t-286.5 4q-114 0 -177 -0.5t-122 -4t-85 -8t-50 -15.5t-34 -23.5t-22 -34.5q-19 -35 -26 -101.5t-7 -197.5q0 -125 13 -180.5t49 -83.5q41 -32 124.5 -40.5t354.5 -8.5q268 0 352 14l-440 234z" />
    <glyph glyph-name="R" unicode="R" horiz-adv-x="1843" 
d="M96 0v1366h1006q353 0 423 -6.5t136 -46.5q78 -47 106.5 -129.5t28.5 -261.5q0 -154 -19.5 -224.5t-74.5 -111.5q-30 -24 -64.5 -36.5t-95.5 -21.5q55 -7 91.5 -16.5t66 -29t45 -46t25.5 -71.5t12 -100t0 -138v-127h-410v72q0 116 -8 163.5t-33 73.5q-22 25 -61.5 31
t-169.5 6h-588v-346h-416zM512 688h586q154 3 184.5 6.5t52.5 18.5q25 15 35 48.5t10 98.5q0 69 -13.5 102.5t-45.5 47.5q-21 9 -50.5 10.5t-172.5 3.5h-586v-336z" />
    <glyph glyph-name="S" unicode="S" horiz-adv-x="1767" 
d="M47 453h404q0 -62 8 -88t33 -41q29 -19 93.5 -24t282.5 -5q302 0 365 10q62 10 75 42q7 17 7 69q0 62 -32 82.5t-132 21.5l-328 12l-221 11l-110 4q-130 4 -210.5 23.5t-132 66.5t-71 119t-19.5 188q0 195 61 291t202 127q120 24 596 24q300 0 432.5 -17t203.5 -66
q62 -41 88.5 -112t26.5 -192q0 -36 -2 -63h-401q-3 58 -10.5 79t-30.5 34q-27 15 -94.5 19.5t-286.5 4.5q-264 0 -322.5 -16.5t-58.5 -91.5q0 -74 61 -88q53 -14 439 -25q339 -11 449.5 -25t176.5 -55q71 -46 100 -124t29 -220q0 -178 -46 -273t-152 -135
q-61 -23 -206 -31.5t-456 -8.5q-320 0 -467 17t-219 62q-71 44 -98 115.5t-27 212.5v66z" />
    <glyph glyph-name="T" unicode="T" horiz-adv-x="1652" 
d="M0 1366h1653v-348h-609v-1018h-436v1018h-608v348z" />
    <glyph glyph-name="U" unicode="U" horiz-adv-x="1951" 
d="M88 1366h416v-629q3 -162 5 -196.5t9 -75.5q9 -43 30.5 -67t75 -39t133 -20t218.5 -5q216 0 300 12t118 49q25 27 35 66t14 135q4 94 4 141v629h416v-629q-4 -219 -7.5 -284.5t-13.5 -143.5q-17 -117 -91 -194.5t-191 -102.5q-91 -19 -214.5 -25.5t-363.5 -6.5
q-392 0 -552 27.5t-236 109.5q-51 52 -72 127.5t-29 226.5q-2 45 -4 266v629z" />
    <glyph glyph-name="V" unicode="V" horiz-adv-x="1925" 
d="M-27 1366h457l498 -1022h80l491 1022h455l-668 -1366h-637z" />
    <glyph glyph-name="W" unicode="W" horiz-adv-x="2822" 
d="M-27 1366h424l367 -1022h76l309 1022h502l311 -1022h78l368 1022h441l-531 -1366h-641l-274 1001l-270 -1001h-646z" />
    <glyph glyph-name="X" unicode="X" horiz-adv-x="2048" 
d="M39 1366h569l420 -479l424 479h576l-656 -676l688 -690h-583l-449 492l-444 -492h-598l698 690z" />
    <glyph glyph-name="Y" unicode="Y" horiz-adv-x="1878" 
d="M-41 1366h547l444 -547l426 547h543l-748 -883v-483h-430v483z" />
    <glyph glyph-name="Z" unicode="Z" horiz-adv-x="1771" 
d="M63 1366h1637v-313l-1000 -725l1031 14v-342h-1690v319l987 719l-965 -14v342z" />
    <glyph glyph-name="bracketleft" unicode="[" horiz-adv-x="804" 
d="M96 1393h635v-256h-270v-990h270v-256h-635v1502z" />
    <glyph glyph-name="backslash" unicode="\" horiz-adv-x="1253" 
d="M-68 1661h261l1130 -1956h-260z" />
    <glyph glyph-name="bracketright" unicode="]" horiz-adv-x="804" 
d="M709 1393v-1502h-635v256h270v990h-270v256h635z" />
    <glyph glyph-name="asciicircum" unicode="^" horiz-adv-x="1024" 
d="M354 688h-344l283 688h436l283 -688h-344l-156 422z" />
    <glyph glyph-name="underscore" unicode="_" horiz-adv-x="1024" 
d="M0 -82h1024v-246h-1024v246z" />
    <glyph glyph-name="grave" unicode="`" horiz-adv-x="1024" 
d="M299 1593l422 -419l-92 -119l-514 291z" />
    <glyph glyph-name="a" unicode="a" horiz-adv-x="1433" 
d="M453 666h-363q8 106 46.5 168.5t123.5 103.5q123 57 543 57q239 0 325.5 -17.5t147.5 -78.5q46 -50 64 -117.5t18 -197.5v-584h-348v133h-15q-23 -47 -54 -76t-81 -49q-44 -19 -127 -26t-260 -7q-241 0 -331.5 64.5t-90.5 236.5q0 130 50.5 205t156.5 103q65 18 155 24
t294 6q126 0 178.5 -14.5t95.5 -60.5h16v51q0 49 -5.5 76.5t-18 49t-42.5 30t-70.5 12.5t-110.5 4q-85 0 -130.5 -2t-82.5 -6.5t-51.5 -16.5t-22 -27t-10.5 -44zM694 410q-165 0 -222.5 -21.5t-57.5 -81.5q0 -59 52 -79.5t198 -20.5q192 0 259.5 22.5t67.5 87.5q0 60 -63 82
q-32 11 -234 11z" />
    <glyph glyph-name="b" unicode="b" horiz-adv-x="1503" 
d="M82 1366h362v-526h17q54 91 138.5 123t266.5 32q179 0 287.5 -21.5t171.5 -68.5q71 -54 97 -142t26 -276q0 -182 -23 -269.5t-84 -141.5q-60 -54 -168 -77.5t-296 -23.5q-139 0 -218.5 13t-129.5 45t-87 94h-18v-127h-342v1366zM766 723q-193 0 -254 -37
q-38 -23 -53 -67.5t-15 -137.5q0 -103 19.5 -145.5t75.5 -61.5q77 -24 233 -24q200 0 258 43q31 22 43 67t12 136q0 96 -18 138t-68 62q-79 27 -233 27z" />
    <glyph glyph-name="c" unicode="c" horiz-adv-x="1431" 
d="M1012 389h368q-5 -122 -24 -185t-66 -110q-69 -71 -188 -95t-404 -24q-224 0 -335 19.5t-183 71.5q-71 50 -98 142t-27 284q0 175 25 263.5t90 141.5q69 57 184.5 77.5t362.5 20.5q243 0 364.5 -21.5t190.5 -78.5q58 -46 81.5 -114.5t28.5 -205.5h-368q-9 83 -73.5 115.5
t-223.5 32.5q-99 0 -154 -8.5t-89.5 -37t-45 -72.5t-10.5 -124q0 -95 18.5 -138.5t67.5 -63.5q69 -29 217 -29q160 0 219.5 28t71.5 111z" />
    <glyph glyph-name="d" unicode="d" horiz-adv-x="1501" 
d="M1419 1366v-1366h-342v127h-18q-53 -88 -142.5 -120t-285.5 -32q-197 0 -302.5 23t-168.5 80q-60 56 -82.5 144.5t-22.5 269.5q0 183 32.5 281t109.5 149q66 43 158 58t280 15q130 0 204.5 -13.5t120.5 -46t82 -95.5h15v526h362zM754 723q-91 0 -146 -5.5t-95.5 -18
t-59.5 -40t-27 -64.5t-8 -99q0 -57 4 -92.5t17 -65.5t33 -45.5t57.5 -26t83.5 -13.5t118 -3q209 0 273 45q31 20 43 62.5t12 127.5q0 63 -7.5 102t-25 68t-54.5 42.5t-87 19.5t-131 6z" />
    <glyph glyph-name="e" unicode="e" horiz-adv-x="1419" 
d="M997 309h361q-8 -83 -32 -138t-68.5 -95t-123.5 -61t-186 -30.5t-268 -9.5q-210 0 -323 20.5t-179 70.5q-71 54 -97 142t-26 273q0 195 27.5 284.5t103.5 143.5q71 50 183 68t348 18q246 0 355 -19t175 -73q65 -54 92 -144.5t27 -254.5q0 -57 -2 -98h-946
q0 -73 9.5 -105.5t35.5 -52.5q55 -41 246 -41q120 0 176 8t80.5 28.5t31.5 65.5zM418 604h583q-2 58 -6.5 79t-21.5 38q-46 49 -250 49q-126 0 -188.5 -14t-88.5 -48t-28 -104z" />
    <glyph glyph-name="f" unicode="f" horiz-adv-x="890" 
d="M0 709v260h186q4 154 22.5 216t74.5 113q59 54 144.5 73.5t266.5 19.5q46 0 183 -7v-239q-68 2 -97 2q-76 0 -117.5 -6t-68.5 -26.5t-35 -53t-10 -92.5h356v-260h-356v-709h-363v709h-186z" />
    <glyph glyph-name="g" unicode="g" horiz-adv-x="1497" 
d="M1079 969h342v-891q0 -126 -4.5 -168t-25.5 -100q-25 -69 -80 -122.5t-127 -78.5q-146 -51 -473 -51q-230 0 -343 23t-182 83q-49 42 -73.5 100.5t-32.5 147.5h369l4 -10q15 -55 68 -73.5t196 -18.5t207 13t96 50q26 29 33.5 66.5t7.5 138.5v86h-14q-38 -61 -85 -93
t-120 -45.5t-197 -13.5q-191 0 -297.5 20t-169.5 68q-71 56 -97 144.5t-26 271.5q0 198 44.5 293t158.5 139q107 45 391 45q130 0 204.5 -13t122.5 -44.5t87 -93.5h16v127zM752 721q-74 0 -123 -3t-88.5 -13t-61.5 -24t-36.5 -40t-19.5 -57.5t-5 -79.5q0 -71 11.5 -110.5
t48.5 -65t94.5 -33.5t160.5 -8q213 0 275 47q29 22 40 58.5t11 111.5q0 87 -16.5 127.5t-59.5 60.5q-69 29 -231 29z" />
    <glyph glyph-name="h" unicode="h" horiz-adv-x="1470" 
d="M82 1366h362v-545h17q44 92 139.5 133t267.5 41q161 0 259 -28t161 -93q63 -64 85 -147t22 -254v-473h-363v473q0 83 -9.5 128.5t-42 75t-83.5 38t-145 8.5q-67 0 -112 -4.5t-81.5 -18.5t-57 -34.5t-34.5 -57t-18.5 -82t-4.5 -112.5v-414h-362v1366z" />
    <glyph glyph-name="i" unicode="i" horiz-adv-x="526" 
d="M82 969h362v-969h-362v969zM82 1366h362v-272h-362v272z" />
    <glyph glyph-name="j" unicode="j" horiz-adv-x="575" 
d="M133 969h363v-910v-73q0 -108 -18 -174t-66.5 -108t-125 -57.5t-200.5 -15.5q-68 0 -113 4v248q25 -2 50 -2q49 0 72.5 18.5t31.5 61.5q6 41 6 150v858zM133 1366h363v-272h-363v272z" />
    <glyph glyph-name="k" unicode="k" horiz-adv-x="1366" 
d="M82 1366h362v-713h78l332 316h485l-501 -451l569 -518h-481l-389 389h-93v-389h-362v1366z" />
    <glyph glyph-name="l" unicode="l" horiz-adv-x="526" 
d="M82 1366h362v-1366h-362v1366z" />
    <glyph glyph-name="m" unicode="m" horiz-adv-x="2271" 
d="M82 969h342v-146h18q40 88 135 129t257 41q175 0 278.5 -47.5t161.5 -154.5q46 109 142.5 155.5t275.5 46.5q151 0 245.5 -29.5t157.5 -95.5q63 -64 83 -145.5t20 -269.5v-453h-363v453q-1 121 -8 155t-33 60q-53 53 -205 53q-159 0 -215 -62q-31 -34 -42 -88t-11 -172
v-399h-363v453q0 116 -6 152t-32 63q-47 53 -201 53q-162 0 -221 -59q-31 -31 -42.5 -87t-11.5 -176v-399h-362v969z" />
    <glyph glyph-name="n" unicode="n" horiz-adv-x="1472" 
d="M82 969h342v-148h18q50 94 143 133t269 39q173 0 272.5 -27.5t163.5 -93.5q66 -69 86.5 -151t20.5 -281v-440h-363v440q0 118 -8 159t-37 69q-29 29 -85.5 41t-158.5 12q-99 0 -157 -15t-90 -49q-34 -35 -44 -86t-10 -184v-387h-362v969z" />
    <glyph glyph-name="o" unicode="o" horiz-adv-x="1480" 
d="M741 993q249 0 371.5 -19t190.5 -69q73 -54 98.5 -136.5t25.5 -266.5q0 -199 -23 -286.5t-89 -143.5q-69 -57 -186.5 -77t-385.5 -20q-271 0 -388.5 20t-186.5 77q-68 56 -90.5 145t-22.5 299q0 171 26.5 254t98.5 135q67 49 190 68.5t371 19.5zM743 721q-87 0 -140.5 -6
t-92.5 -20t-57.5 -43.5t-26.5 -69.5t-8 -105q0 -97 16.5 -137.5t65.5 -60.5q70 -31 243 -31q72 0 119 3t85.5 13.5t59.5 26t35 44t18.5 63.5t4.5 89q0 98 -18.5 141.5t-69.5 63.5q-73 29 -234 29z" />
    <glyph glyph-name="p" unicode="p" horiz-adv-x="1503" 
d="M82 -403v1372h342v-131h18q47 89 141.5 122t303.5 33q189 0 294.5 -24t166.5 -82q58 -52 79 -137.5t21 -270.5q0 -110 -8.5 -184t-34.5 -133.5t-64.5 -93t-106.5 -56t-153 -30t-211 -7.5q-184 0 -269.5 31.5t-139.5 118.5h-17v-528h-362zM778 721q-78 0 -126.5 -3
t-89 -13.5t-61 -26t-35 -45.5t-18.5 -66t-4 -94q0 -59 8.5 -96t27.5 -64t57.5 -40.5t91.5 -19t137 -5.5q206 0 264 43q32 23 43.5 68t11.5 141q0 59 -7.5 95t-25.5 62.5t-55 39.5t-87.5 18.5t-131.5 5.5z" />
    <glyph glyph-name="q" unicode="q" horiz-adv-x="1501" 
d="M1421 -403h-362v528h-17q-60 -90 -141.5 -120t-265.5 -30q-207 0 -311 22.5t-168 80.5q-56 53 -78.5 138.5t-22.5 250.5q0 116 8.5 193.5t34.5 139.5t64.5 97t107.5 58t155 30.5t216 7.5q193 0 277.5 -31t142.5 -124h18v131h342v-1372zM731 721q-72 0 -118 -3t-83.5 -14
t-57 -27t-33 -47t-17.5 -68.5t-4 -96.5q0 -83 14.5 -121.5t54.5 -60.5q68 -35 248 -35q88 0 140.5 5.5t92 19t57.5 42t26 67.5t8 103q0 53 -4.5 87.5t-19 62.5t-35.5 43.5t-60 25.5t-87.5 13.5t-121.5 3.5z" />
    <glyph glyph-name="r" unicode="r" horiz-adv-x="1220" 
d="M82 969h342v-146h18q51 92 136 131t237 39q220 0 305.5 -85.5t85.5 -303.5v-65h-342q0 107 -39 144.5t-151 37.5q-131 0 -185 -70q-26 -35 -35.5 -86.5t-9.5 -163.5v-401h-362v969z" />
    <glyph glyph-name="s" unicode="s" horiz-adv-x="1439" 
d="M51 309h369q4 -63 68 -85.5t235 -22.5q177 0 240 18.5t63 71.5q0 29 -22 47.5t-62 23.5q-86 7 -496 7q-206 3 -297.5 72.5t-91.5 224.5q0 113 41 181.5t127 100.5q113 45 502 45q248 0 360 -19t173 -71q38 -31 54.5 -76t22.5 -133h-368q-9 34 -25 45q-45 29 -227 29
q-170 0 -233.5 -17t-63.5 -63q0 -57 86 -63q102 -7 495 -9q211 -2 299.5 -70t88.5 -231q0 -86 -19 -142t-62.5 -96.5t-126.5 -61.5t-196.5 -30.5t-288.5 -9.5q-265 0 -380 20.5t-179 80.5q-44 40 -64.5 94t-21.5 139z" />
    <glyph glyph-name="t" unicode="t" horiz-adv-x="1185" 
d="M190 1192h363v-223h573v-260h-573v-283q0 -79 3 -102.5t15 -42.5q26 -48 125 -48q108 0 131 50q10 19 12.5 39.5t2.5 91.5h332q-3 -137 -17.5 -199.5t-56.5 -116.5q-55 -69 -150.5 -96t-283.5 -27q-174 0 -259 19.5t-139 71.5q-39 39 -55.5 86t-19.5 129q-3 24 -3 145
v283h-190v260h190v223z" />
    <glyph glyph-name="u" unicode="u" horiz-adv-x="1468" 
d="M1389 0h-342v145h-19q-41 -92 -136 -131t-278 -39q-168 0 -267 28.5t-165 94.5q-66 67 -86 148.5t-20 279.5v443h362v-443q0 -106 10 -150.5t39 -72.5q32 -31 82.5 -42t153.5 -11q97 0 151.5 12t88.5 41q38 34 50.5 88t12.5 189v389h363v-969z" />
    <glyph glyph-name="v" unicode="v" horiz-adv-x="1368" 
d="M-27 969h412l301 -688l299 688h412l-477 -969h-469z" />
    <glyph glyph-name="w" unicode="w" horiz-adv-x="2037" 
d="M-20 969h382l222 -705l258 705h344l260 -693l227 693h385l-358 -969h-494l-190 569l-195 -569h-483z" />
    <glyph glyph-name="x" unicode="x" horiz-adv-x="1400" 
d="M14 969h488l182 -258h16l195 258h465l-389 -449l430 -520h-465l-231 328h-19l-237 -328h-449l416 500z" />
    <glyph glyph-name="y" unicode="y" horiz-adv-x="1329" 
d="M-27 969h398l276 -705l307 705h402l-516 -1094q-54 -114 -77 -156t-40.5 -62t-50.5 -40q-85 -53 -264 -53q-118 0 -156 6v248q20 2 82 2q90 -1 131.5 33t85.5 147h-145z" />
    <glyph glyph-name="z" unicode="z" horiz-adv-x="1247" 
d="M78 969h1114v-277l-598 -440h618v-252h-1177v250l622 473h-579v246z" />
    <glyph glyph-name="braceleft" unicode="{" horiz-adv-x="804" 
d="M748 1411v-254q-123 -5 -166.5 -49t-44.5 -168q1 -70 -2 -112t-12 -75t-29.5 -50t-49 -28t-75.5 -18v-18q41 -7 65.5 -13.5t45.5 -21t30.5 -31t17 -50.5t9 -72t2.5 -103q1 -123 44 -167t165 -50v-260q-212 0 -297 13.5t-150 56.5q-52 44 -76.5 93.5t-35.5 134t-15 253.5
q-5 60 -28.5 80.5t-90.5 21.5v250q32 2 49.5 3.5t33.5 8.5t22.5 14.5t11.5 27t6 40t2 58.5q0 107 9 179.5t34.5 130t64 90.5t105 53.5t150 27t205.5 4.5z" />
    <glyph glyph-name="bar" unicode="|" horiz-adv-x="1024" 
d="M313 1366h398v-1708h-398v1708z" />
    <glyph glyph-name="braceright" unicode="}" horiz-adv-x="804" 
d="M57 1157v254q122 2 205.5 -4.5t150 -27t105 -53.5t64 -90.5t34.5 -130t9 -179.5q1 -38 2 -58.5t6 -40t11.5 -27t22.5 -14.5t33.5 -8.5t49.5 -3.5v-250q-77 -3 -99 -28l-16 -50l-8 -172q-7 -168 -52.5 -251.5t-148.5 -120.5q-63 -19 -131.5 -25t-237.5 -6v260
q122 6 165 50t44 167q1 65 2.5 103t9 72t17 50.5t30.5 31t45.5 21t65.5 13.5v18q-47 7 -75.5 18t-49 28t-29.5 50t-12 75t-2 112q-1 124 -44.5 168t-166.5 49z" />
    <glyph glyph-name="asciitilde" unicode="~" horiz-adv-x="1366" 
d="M377 1096l-189 159q62 159 139 233.5t181 74.5q41 0 86.5 -13t189.5 -67q62 -23 90 -23q37 0 61.5 22t59.5 87l189 -158q-52 -130 -105 -197q-91 -114 -217 -114q-31 0 -80.5 15t-177.5 63q-72 28 -108 28q-34 0 -59.5 -23.5t-59.5 -86.5z" />
    <glyph glyph-name="registered" unicode="&#xa0;" horiz-adv-x="1886" 
d="M981 1386q359 0 506 -23t215 -89q44 -43 66 -103.5t34 -173.5q15 -135 15 -319q0 -258 -24 -390.5t-83 -195.5q-61 -64 -203 -88t-463 -24q-562 0 -716 34q-85 19 -147.5 80t-82.5 146q-30 120 -30 448q0 283 29.5 413.5t107.5 190.5q53 40 122.5 57.5t211.5 26.5
q205 10 442 10zM877 1239q-139 0 -210.5 -0.5t-155.5 -11t-117.5 -19t-75 -43.5t-51 -62.5t-22.5 -98t-13.5 -130t-0.5 -176.5q0 -242 14 -342t54 -143q35 -35 87.5 -51t164.5 -23q28 -1 199.5 -5.5t203.5 -4.5q167 0 320 8.5t207 20.5t92.5 51.5t52.5 95.5q27 128 27 391
q0 226 -15.5 325.5t-56.5 139.5q-38 37 -98.5 52t-186.5 20.5t-419 5.5zM397 272v820h643q224 0 269.5 -4t89.5 -29q51 -29 70.5 -79.5t19.5 -154.5q0 -88 -13 -133.5t-44.5 -67t-96.5 -30.5q64 -9 91.5 -25t39.5 -51q13 -38 13 -160v-86h-279v54v49.5t-3 36t-5 28t-12 17
t-18 12t-29 4.5t-39 3.5t-53 0.5h-3h-358v-205h-283zM680 696h358q126 2 147 13t21 77q0 63 -21 73.5t-147 12.5h-358v-176z" />
    <glyph glyph-name="exclamdown" unicode="&#xa1;" horiz-adv-x="681" 
d="M547 0h-410v780h410v-780zM571 938h-458v428h458v-428z" />
    <glyph glyph-name="cent" unicode="&#xa2;" horiz-adv-x="1638" 
d="M928 113v-168h-223v170q-218 4 -307 16.5t-152 46.5q-60 34 -89 87.5t-38 144.5q-8 102 -8 274q0 174 6.5 257.5t23.5 125.5q34 82 110 121t228 51q65 7 226 10v170h223v-168q167 -1 218 -4t124 -14q127 -22 182 -101.5t55 -242.5q0 -51 -2 -82h-372q2 57 -4.5 79
t-28.5 34l-56 10h-83l-33 2v-492h69.5t52 2.5t39.5 4.5t25.5 9.5t17.5 14t8.5 21.5t5.5 28.5t1 38.5l2 29h373q2 -53 2 -117q0 -146 -40.5 -217t-140.5 -102q-65 -20 -155.5 -29t-259.5 -10zM705 440v490q-91 0 -120 -3t-48 -14q-29 -17 -40.5 -70.5t-11.5 -174.5
q0 -102 9.5 -146t35.5 -61q21 -14 49 -17.5t126 -3.5z" />
    <glyph glyph-name="sterling" unicode="&#xa3;" 
d="M53 764h221v76q0 225 24 315.5t97 142.5q69 52 185.5 68t423.5 16q311 0 454 -15t213 -56q72 -41 102.5 -111t30.5 -196q0 -17 -4 -111h-389q0 37 -3 60t-9.5 44t-24 32t-38 20t-61.5 12t-85 4.5t-117 1.5h-105.5t-83.5 -2.5t-67.5 -4t-49 -9.5t-38 -13.5t-23.5 -21.5
t-16.5 -28t-7 -39t-4.5 -48v-61v-76h571v-250h-571v-14q0 -61 -25 -101.5t-84 -74.5h1260v-324h-1704v317q93 3 121 34.5t28 133.5v29h-221v250z" />
    <glyph glyph-name="currency" unicode="&#xa4;" 
d="M1649 1126l-170 -170q23 -47 30 -97t7 -165q0 -119 -7.5 -177.5t-27.5 -108.5l168 -170l-172 -172l-203 200q-111 -18 -344 -18q-236 0 -344 18l-203 -200l-174 172l170 170q-22 50 -29.5 108t-7.5 176q0 117 7 167t30 97l-170 170l174 174l203 -202q123 20 344 20
q222 0 342 -20l205 202zM932 907q-69 0 -115 -3t-83 -13t-57 -25t-33.5 -42t-18 -61t-4.5 -85q0 -94 15.5 -132.5t61.5 -58.5q70 -28 234 -28q83 0 132.5 5.5t86.5 18t54 40t24.5 64.5t7.5 99q0 92 -18.5 134t-65.5 61q-67 26 -221 26z" />
    <glyph glyph-name="yen" unicode="&#xa5;" 
d="M1489 950h211v-194h-350l-115 -160h465v-195h-545v-401h-416v401h-579v195h495l-120 160h-375v194h227l-311 416h504l362 -549l344 549h498z" />
    <glyph glyph-name="logicalnot" unicode="&#xa6;" horiz-adv-x="1024" 
d="M569 0v264h-501v346h886v-610h-385z" />
    <glyph glyph-name="section" unicode="&#xa7;" 
d="M1575 1167h-350q-1 117 -41.5 136.5t-274.5 19.5q-72 0 -114 -1t-79 -4.5t-53.5 -9t-28.5 -16.5t-15 -24.5t-3 -36.5q0 -45 27 -63.5t109 -28.5l540 -70q105 -14 168.5 -35t104 -62t55 -100t14.5 -153q0 -132 -23 -190.5t-87 -90.5q67 -28 90.5 -77t23.5 -160
q0 -129 -27 -207t-87 -119q-75 -52 -208.5 -70t-443.5 -18q-227 0 -326.5 16t-170.5 64q-63 44 -91 126t-28 222v35h334q3 -66 12.5 -95t32.5 -46q29 -22 87.5 -28.5t225.5 -6.5q79 0 125.5 1t87 5.5t58.5 11t31.5 20.5t16.5 30t3 44q0 54 -26 73.5t-114 29.5l-655 88
q-82 11 -129.5 28t-78 55t-40.5 92.5t-10 147.5q0 130 27.5 187.5t101.5 83.5q-58 46 -77 101t-19 177q0 135 40.5 205t141.5 107q74 26 202 36.5t390 10.5q169 0 255.5 -12.5t147.5 -45.5q78 -43 113 -114.5t35 -188.5v-80zM676 621l508 -62q43 -6 69 -6q88 0 88 137
q0 66 -32.5 88.5t-141.5 36.5l-440 51q-20 2 -42.5 5t-33 4.5t-12.5 1.5q-96 0 -96 -136q0 -65 25 -87.5t108 -32.5z" />
    <glyph glyph-name="dieresis" unicode="&#xa8;" horiz-adv-x="1024" 
d="M61 1427h383v-260h-383v260zM580 1427h383v-260h-383v260z" />
    <glyph glyph-name="threequarters" unicode="&#xa9;" horiz-adv-x="2873" 
d="M334 1075h-264q-2 18 -2 51q0 57 7 93.5t31 66.5t59.5 46t102 26.5t148.5 14t209 3.5q188 0 269 -9.5t124 -37.5q41 -26 59.5 -70.5t18.5 -117.5q0 -79 -23 -115.5t-88 -58.5q75 -20 101 -59.5t26 -135.5q0 -89 -30.5 -135.5t-102.5 -69.5q-91 -30 -483 -30q-96 0 -159 4
t-114 15.5t-79 29.5t-47 50.5t-25 73t-6 101.5v33h266v-21q0 -42 8 -56t33 -19q49 -7 209 -7q63 0 100.5 0.5t70 3.5t47.5 7t26 12.5t13.5 18.5t2.5 26q0 47 -27 55t-188 8h-160v177h207q94 0 122.5 13t28.5 54q0 40 -35 49t-194 9q-140 0 -185.5 -3.5t-58.5 -15.5
q-18 -13 -18 -80zM1925 1384l160 -129l-1030 -1273l-160 129zM2859 346v-196h-168v-150h-264v150h-688v319l518 350h434v-473h168zM2427 346v270h-43l-393 -251v-19h436z" />
    <glyph glyph-name="ordfeminine" unicode="&#xaa;" horiz-adv-x="999" 
d="M342 956h-248q9 112 115 158q71 35 346 35q150 0 206.5 -11t96.5 -48q32 -29 43.5 -70.5t11.5 -122.5v-350h-239v76h-12q-14 -40 -41.5 -58t-85 -25.5t-177.5 -7.5q-103 0 -155.5 11.5t-83.5 40.5q-49 43 -49 127q0 125 108 168q66 26 275 26q99 0 137 -9.5t61 -41.5h15
v47q0 62 -23.5 76t-124.5 14q-110 0 -138.5 -6t-37.5 -29zM485 788q-98 0 -132 -13t-34 -50q0 -36 31 -48.5t121 -12.5q110 0 150.5 14.5t40.5 54.5q0 36 -33 47q-16 8 -144 8z" />
    <glyph glyph-name="guillemotleft" unicode="&#xab;" horiz-adv-x="1316" 
d="M334 915l227 -174l-121 -161l238 -422l-293 -158l-317 578zM903 889l223 -180l-108 -140l229 -413l-291 -156l-315 569z" />
    <glyph glyph-name="nbspace" unicode="&#xac;" horiz-adv-x="512" 
 />
    <glyph glyph-name="middot" unicode="&#xad;" horiz-adv-x="669" 
d="M117 672h436v-363h-436v363z" />
    <glyph glyph-name="copyright" unicode="&#xae;" horiz-adv-x="1886" 
d="M981 1386q359 0 506 -23t215 -89q44 -43 66 -103.5t34 -173.5q15 -135 15 -319q0 -258 -24 -390.5t-83 -195.5q-61 -64 -203 -88t-463 -24q-562 0 -716 34q-85 19 -147.5 80t-82.5 146q-30 120 -30 448q0 283 29.5 413.5t107.5 190.5q53 40 122.5 57.5t211.5 26.5
q205 10 442 10zM877 1239q-139 0 -210.5 -0.5t-155.5 -11t-117.5 -19t-75 -43.5t-51 -62.5t-22.5 -98t-13.5 -130t-0.5 -176.5q0 -242 14 -342t54 -143q35 -35 87.5 -51t164.5 -23q28 -1 199.5 -5.5t203.5 -4.5q167 0 320 8.5t207 20.5t92.5 51.5t52.5 95.5q27 128 27 391
q0 226 -15.5 325.5t-56.5 139.5q-38 37 -98.5 52t-186.5 20.5t-419 5.5zM1219 602h280q4 -55 4 -86q0 -56 -7 -93.5t-29 -68t-54.5 -47.5t-91.5 -28t-132 -15t-183 -4q-254 0 -359.5 9.5t-159.5 37.5q-45 25 -68 63t-30 101q-6 55 -6 203q0 234 25 297q15 36 38.5 57.5
t62 37.5t107.5 24t159 11t235 3q171 0 248.5 -7.5t121.5 -29.5q59 -29 83 -80.5t24 -148.5v-52h-283q-1 44 -4 56t-12 20q-24 21 -252 21q-202 0 -236 -25.5t-34 -179.5v-2q0 -37 -0.5 -53.5t3 -41.5t4.5 -33.5t12 -24t16 -18.5t27 -11t34.5 -8.5t49.5 -2.5t60.5 -2h77.5
q200 0 234 15t35 106z" />
    <glyph glyph-name="macron" unicode="&#xaf;" horiz-adv-x="1024" 
d="M68 1403h888v-211h-888v211z" />
    <glyph glyph-name="sfthyphen" unicode="&#xb0;" horiz-adv-x="864" 
d="M2 629h862v-277h-864z" />
    <glyph glyph-name="trademark" unicode="&#xb1;" horiz-adv-x="2715" 
d="M10 1366h1061v-223h-383v-596h-295v596h-383v223zM1165 1366h492l250 -506l250 506h489v-819h-279l7 598h-27l-326 -598h-229l-324 598h-30l6 -598h-279v819z" />
    <glyph glyph-name="twosuperior" unicode="&#xb2;" horiz-adv-x="1198" 
d="M346 1083h-270q-2 12 -2 27q0 109 30 163t103 77q82 26 418 26q230 0 300 -6.5t111 -32.5q43 -28 61.5 -76.5t18.5 -138.5q0 -92 -20.5 -143.5t-67.5 -77.5q-42 -26 -103.5 -35t-299.5 -24q-161 -9 -202.5 -13.5t-55.5 -13.5q-14 -12 -17.5 -26t-3.5 -56h776v-186h-1034
q-4 45 -4 100q0 186 20 242q22 57 72 85t152 40q1 0 370 28q48 3 72.5 6t44.5 7t26.5 12t9.5 17.5t3 27.5q0 52 -29.5 61t-203.5 9q-206 0 -240.5 -9t-34.5 -63v-27z" />
    <glyph glyph-name="threesuperior" unicode="&#xb3;" horiz-adv-x="1198" 
d="M334 1075h-264q-2 18 -2 51q0 57 7 93.5t31 66.5t59.5 46t102 26.5t148.5 14t209 3.5q188 0 269 -9.5t124 -37.5q41 -26 59.5 -70.5t18.5 -117.5q0 -79 -23 -115.5t-88 -58.5q75 -20 101 -59.5t26 -135.5q0 -89 -30.5 -135.5t-102.5 -69.5q-91 -30 -483 -30q-96 0 -159 4
t-114 15.5t-79 29.5t-47 50.5t-25 73t-6 101.5v33h266v-21q0 -42 8 -56t33 -19q49 -7 209 -7q63 0 100.5 0.5t70 3.5t47.5 7t26 12.5t13.5 18.5t2.5 26q0 47 -27 55t-188 8h-160v177h207q94 0 122.5 13t28.5 54q0 40 -35 49t-194 9q-140 0 -185.5 -3.5t-58.5 -15.5
q-18 -13 -18 -80z" />
    <glyph glyph-name="acute" unicode="&#xb4;" horiz-adv-x="1024" 
d="M297 1176l422 419l184 -247l-512 -295z" />
    <glyph glyph-name="brokenbar" unicode="&#xb5;" horiz-adv-x="1024" 
d="M313 1366h398v-743h-398v743zM313 313h398v-655h-398v655z" />
    <glyph glyph-name="paragraph" unicode="&#xb6;" 
d="M1573 1577v-1761h-246v1562h-94v-1562h-246v911h-67q-232 0 -281 1.5t-107 8.5q-76 11 -137.5 53t-89.5 103q-41 86 -41 262q0 139 26 221.5t85 126.5q21 16 36 24.5t31.5 17.5t47 13t58 8t90 5.5t117.5 2.5l165 3h653z" />
    <glyph glyph-name="periodcentered" unicode="&#xb7;" horiz-adv-x="669" 
d="M117 672h436v-363h-436v363z" />
    <glyph glyph-name="cedilla" unicode="&#xb8;" horiz-adv-x="1024" 
d="M379 0h147v-109h148q70 0 92 -23t22 -95v-199q0 -80 -22 -99.5t-113 -19.5h-280v148h172q41 0 52 10.5t11 50.5v29q0 40 -9.5 48.5t-53.5 8.5h-166v250z" />
    <glyph glyph-name="onesuperior" unicode="&#xb9;" horiz-adv-x="1198" 
d="M459 1366h426v-819h-279v594h-57l-258 -203l-156 170z" />
    <glyph glyph-name="ordmasculine" unicode="&#xba;" horiz-adv-x="1028" 
d="M514 1149q157 0 235.5 -11.5t124.5 -41.5q47 -32 64.5 -83.5t17.5 -160.5q0 -120 -15 -174t-58 -86q-46 -35 -121.5 -47.5t-247.5 -12.5t-247.5 12.5t-121.5 47.5q-44 34 -58.5 87t-14.5 181q0 101 18.5 153t65.5 83q44 30 121.5 41.5t236.5 11.5zM516 969q-67 0 -103 -4
t-58.5 -19.5t-29 -39t-6.5 -68.5q0 -43 6 -66t29 -37t58 -18t102 -4q55 0 86.5 3t55.5 10t34 23t14.5 37t4.5 58q0 80 -35 102.5t-158 22.5z" />
    <glyph glyph-name="guillemotright" unicode="&#xbb;" horiz-adv-x="1323" 
d="M186 717l226 176l264 -324l-318 -569l-290 166l227 414zM754 750l229 174l270 -346l-319 -578l-297 162l242 426z" />
    <glyph glyph-name="onehalf" unicode="&#xbc;" horiz-adv-x="2871" 
d="M446 1366h426v-819h-278v594h-57l-258 -203l-156 170zM1790 1384l160 -129l-1030 -1273l-160 129zM1995 539h-271q-2 12 -2 26q0 108 30 161.5t103 76.5q82 26 418 26q232 0 301 -6t111 -32q43 -28 61.5 -76.5t18.5 -136.5q0 -92 -20.5 -144t-67.5 -80
q-42 -26 -104 -34.5t-300 -22.5q-162 -10 -203 -15t-55 -14q-13 -12 -16.5 -25.5t-3.5 -56.5h776v-186h-1034q-4 45 -4 100q0 186 20 242q22 59 71 87t152 40q3 0 42 3t132.5 10.5t196.5 15.5q49 3 72.5 6t44 6.5t27 12t9.5 18t3 28.5q0 51 -30 59.5t-204 8.5
q-205 0 -239.5 -9t-34.5 -63v-26z" />
    <glyph glyph-name="plusminus" unicode="&#xbd;" 
d="M807 707h-547v245h547v426h246v-426h544v-245h-544v-426h-246v426zM260 231h1337v-231h-1337v231z" />
    <glyph glyph-name="onequarter" unicode="&#xbe;" horiz-adv-x="2871" 
d="M377 1366h426v-819h-279v594h-57l-258 -203l-156 170zM1747 1384l162 -129l-1032 -1273l-160 129zM2736 346v-196h-168v-150h-264v150h-688v319l518 350h434v-473h168zM2304 346v270h-43l-393 -251v-19h436z" />
    <glyph glyph-name="questiondown" unicode="&#xbf;" horiz-adv-x="1445" 
d="M1059 487h360l-2 -71q2 -122 -10.5 -186t-46.5 -105q-61 -82 -210 -113.5t-468 -31.5q-142 0 -236.5 6t-171 24.5t-119.5 46t-72 76t-38.5 109.5t-9.5 151q0 166 40.5 245t141.5 110q69 23 289 61q83 15 102 29.5t19 64.5h356q2 -23 2 -53q0 -114 -23.5 -173.5t-82.5 -91
t-181 -50.5q-185 -31 -247 -52q-62 -24 -62 -102q0 -87 78 -105q52 -14 248 -14q166 0 213.5 4t79.5 21q31 17 40.5 47t10.5 123v30zM1022 1001h-442v365h442v-365z" />
    <glyph glyph-name="Agrave" unicode="&#xc0;" horiz-adv-x="2015" 
d="M1577 0l-117 231h-903l-117 -231h-475l723 1366h647l715 -1366h-473zM1315 530l-264 519h-82l-264 -519h610zM535 1661l161 319l506 -364l-82 -156z" />
    <glyph glyph-name="Aacute" unicode="&#xc1;" horiz-adv-x="2015" 
d="M1577 0l-117 231h-903l-117 -231h-475l723 1366h647l715 -1366h-473zM1315 530l-264 519h-82l-264 -519h610zM1319 1982l160 -319l-584 -205l-84 162z" />
    <glyph glyph-name="Acircumflex" unicode="&#xc2;" horiz-adv-x="2015" 
d="M1577 0l-117 231h-903l-117 -231h-475l723 1366h647l715 -1366h-473zM1315 530l-264 519h-82l-264 -519h610zM498 1663l510 276l508 -276l-56 -133l-452 117l-455 -117z" />
    <glyph glyph-name="Atilde" unicode="&#xc3;" horiz-adv-x="2015" 
d="M1577 0l-117 231h-903l-117 -231h-475l723 1366h647l715 -1366h-473zM1315 530l-264 519h-82l-264 -519h610zM1309 1851h188q-2 -94 -10 -136t-33 -77q-56 -79 -151 -79q-88 0 -287 57q-186 55 -242 55q-37 0 -53 -19.5t-16 -62.5h-189q1 82 12.5 128.5t38.5 80.5
q63 84 176 84q49 0 96 -10t203 -55q166 -48 213 -48q32 0 43 16.5t11 65.5z" />
    <glyph glyph-name="Adieresis" unicode="&#xc4;" horiz-adv-x="2015" 
d="M1577 0l-117 231h-903l-117 -231h-475l723 1366h647l715 -1366h-473zM1315 530l-264 519h-82l-264 -519h610zM502 1868h395v-295h-395v295zM1116 1868h395v-295h-395v295z" />
    <glyph glyph-name="Aring" unicode="&#xc5;" horiz-adv-x="2015" 
d="M1577 0l-117 231h-903l-117 -231h-475l723 1366h647l715 -1366h-473zM1315 530l-264 519h-82l-264 -519h610zM1038 2073q214 0 285 -45q40 -28 54 -83t14 -190q0 -141 -17.5 -193.5t-73.5 -78.5q-71 -35 -323 -35q-209 0 -272 39q-50 29 -65 83.5t-15 203.5q0 95 9 146
t31 79t66 45q79 29 307 29zM995 1901q-95 0 -126 -27.5t-31 -110.5q0 -52 4 -77.5t23.5 -42t48.5 -20t90 -3.5q114 0 143 23.5t29 117.5q0 91 -32 115.5t-149 24.5z" />
    <glyph glyph-name="AE" unicode="&#xc6;" horiz-adv-x="2840" 
d="M885 1366h1921v-322h-1069v-198h1003v-301h-1003v-217h1065v-328h-1471v233h-723l-155 -243h-494zM1124 1040l-323 -501h530v501h-207z" />
    <glyph glyph-name="Ccedilla" unicode="&#xc7;" horiz-adv-x="1861" 
d="M958 -20v-91h154q71 0 94 -23.5t23 -98.5v-226q0 -83 -22.5 -103t-116.5 -20h-289v172h170q43 0 54 9t11 41v45q0 33 -10 40t-55 7h-164v250q-232 4 -283 8q-191 13 -286.5 61t-133.5 150q-22 56 -29 153.5t-7 319.5q0 233 7.5 335t30.5 158q19 48 44.5 80t73.5 58
t110 40.5t166 24.5t229.5 13t312.5 3q273 0 395 -13t193 -50q87 -44 122.5 -129t35.5 -250q0 -38 -2 -67h-416q-3 68 -8.5 91t-22.5 38q-44 38 -413 38q-196 0 -270.5 -8.5t-106.5 -34.5q-37 -29 -51.5 -100t-14.5 -225v-117t9.5 -85t15 -64.5t35 -41t51 -28t81.5 -11.5
t107 -7h146q279 0 348 11q78 13 99 55q16 31 18 131v7h415q4 -74 4 -127q0 -166 -46.5 -250t-161.5 -122q-82 -26 -184 -35.5t-306 -9.5z" />
    <glyph glyph-name="Egrave" unicode="&#xc8;" horiz-adv-x="1650" 
d="M96 1366h1512v-322h-1102v-198h1046v-301h-1046v-217h1110v-328h-1520v1366zM416 1661l162 319l505 -364l-82 -156z" />
    <glyph glyph-name="Eacute" unicode="&#xc9;" horiz-adv-x="1650" 
d="M96 1366h1512v-322h-1102v-198h1046v-301h-1046v-217h1110v-328h-1520v1366zM1139 1982l159 -319l-583 -205l-84 162z" />
    <glyph glyph-name="Ecircumflex" unicode="&#xca;" horiz-adv-x="1650" 
d="M96 1366h1512v-322h-1102v-198h1046v-301h-1046v-217h1110v-328h-1520v1366zM358 1663l510 276l508 -276l-55 -133l-453 117l-454 -117z" />
    <glyph glyph-name="Edieresis" unicode="&#xcb;" horiz-adv-x="1650" 
d="M96 1366h1512v-322h-1102v-198h1046v-301h-1046v-217h1110v-328h-1520v1366zM348 1868h395v-295h-395v295zM963 1868h395v-295h-395v295z" />
    <glyph glyph-name="Igrave" unicode="&#xcc;" horiz-adv-x="628" 
d="M96 1366h436v-1366h-436v1366zM-145 1726l206 277l424 -430l-104 -135z" />
    <glyph glyph-name="Iacute" unicode="&#xcd;" horiz-adv-x="628" 
d="M96 1366h436v-1366h-436v1366zM575 2007l205 -278l-520 -293l-108 139z" />
    <glyph glyph-name="Icircumflex" unicode="&#xce;" horiz-adv-x="628" 
d="M94 1366h436v-1366h-436v1366zM313 1647l-303 -113l-69 129l372 276l373 -276l-70 -129z" />
    <glyph glyph-name="Idieresis" unicode="&#xcf;" horiz-adv-x="628" 
d="M96 1366h436v-1366h-436v1366zM-109 1868h369v-295h-369v295zM369 1868h368v-295h-368v295z" />
    <glyph glyph-name="Eth" unicode="&#xd0;" horiz-adv-x="1986" 
d="M117 1366h985q263 0 343 -4t169 -23q205 -41 266 -231q23 -72 31 -155t8 -251q0 -267 -28 -392.5t-103 -194.5q-78 -71 -210 -93t-476 -22h-985v563h-127v258h127v545zM526 348h578q79 0 127 1t96 7.5t73 14t49 27t33 39.5t17 59t9 77.5t1 102.5q0 128 -12 192.5
t-43 98.5q-32 37 -96 47t-256 10h-576v-203h604v-258h-604v-215z" />
    <glyph glyph-name="Ntilde" unicode="&#xd1;" horiz-adv-x="2091" 
d="M96 1366h729l715 -1018h43l-10 1018h424v-1366h-723l-719 1020h-45l10 -1020h-424v1366zM1348 1851h188q-2 -94 -10 -136t-33 -77q-56 -79 -152 -79q-87 0 -286 57q-186 55 -242 55q-37 0 -53.5 -19.5t-16.5 -62.5h-188q1 82 12.5 128.5t38.5 80.5q63 84 176 84
q49 0 96 -10t203 -55q166 -48 213 -48q32 0 43 16.5t11 65.5z" />
    <glyph glyph-name="Ograve" unicode="&#xd2;" horiz-adv-x="2011" 
d="M1006 1386q430 0 577 -17t225 -77t107 -188t29 -420q0 -293 -29 -421.5t-107 -188.5t-225 -77t-573 -17q-433 0 -581 17t-226 77q-79 61 -107 189t-28 429q0 286 28.5 413t106.5 187t225.5 77t577.5 17zM1006 1032q-136 0 -206.5 -1.5t-129.5 -5.5t-84 -14.5t-41 -24.5
t-29 -40q-19 -35 -26 -101t-7 -198q0 -127 12.5 -181t49.5 -83q41 -32 123 -40.5t342 -8.5q249 0 331.5 9t124.5 40q36 28 49 83t13 179q0 152 -10.5 222t-38.5 104q-25 29 -63.5 41t-123 16t-286.5 4zM547 1661l162 319l505 -364l-81 -156z" />
    <glyph glyph-name="Oacute" unicode="&#xd3;" horiz-adv-x="2011" 
d="M1006 1386q430 0 577 -17t225 -77t107 -188t29 -420q0 -293 -29 -421.5t-107 -188.5t-225 -77t-573 -17q-433 0 -581 17t-226 77q-79 61 -107 189t-28 429q0 286 28.5 413t106.5 187t225.5 77t577.5 17zM1006 1032q-136 0 -206.5 -1.5t-129.5 -5.5t-84 -14.5t-41 -24.5
t-29 -40q-19 -35 -26 -101t-7 -198q0 -127 12.5 -181t49.5 -83q41 -32 123 -40.5t342 -8.5q249 0 331.5 9t124.5 40q36 28 49 83t13 179q0 152 -10.5 222t-38.5 104q-25 29 -63.5 41t-123 16t-286.5 4zM1317 1982l160 -319l-584 -205l-84 162z" />
    <glyph glyph-name="Ocircumflex" unicode="&#xd4;" horiz-adv-x="2011" 
d="M1006 1386q430 0 577 -17t225 -77t107 -188t29 -420q0 -293 -29 -421.5t-107 -188.5t-225 -77t-573 -17q-433 0 -581 17t-226 77q-79 61 -107 189t-28 429q0 286 28.5 413t106.5 187t225.5 77t577.5 17zM1006 1032q-136 0 -206.5 -1.5t-129.5 -5.5t-84 -14.5t-41 -24.5
t-29 -40q-19 -35 -26 -101t-7 -198q0 -127 12.5 -181t49.5 -83q41 -32 123 -40.5t342 -8.5q249 0 331.5 9t124.5 40q36 28 49 83t13 179q0 152 -10.5 222t-38.5 104q-25 29 -63.5 41t-123 16t-286.5 4zM496 1663l510 276l507 -276l-55 -133l-452 117l-455 -117z" />
    <glyph glyph-name="Otilde" unicode="&#xd5;" horiz-adv-x="2011" 
d="M1006 1386q430 0 577 -17t225 -77t107 -188t29 -420q0 -293 -29 -421.5t-107 -188.5t-225 -77t-573 -17q-433 0 -581 17t-226 77q-79 61 -107 189t-28 429q0 286 28.5 413t106.5 187t225.5 77t577.5 17zM1006 1032q-136 0 -206.5 -1.5t-129.5 -5.5t-84 -14.5t-41 -24.5
t-29 -40q-19 -35 -26 -101t-7 -198q0 -127 12.5 -181t49.5 -83q41 -32 123 -40.5t342 -8.5q249 0 331.5 9t124.5 40q36 28 49 83t13 179q0 152 -10.5 222t-38.5 104q-25 29 -63.5 41t-123 16t-286.5 4zM1307 1851h188q-2 -94 -10 -136t-33 -77q-56 -79 -152 -79
q-87 0 -286 57q-186 55 -242 55q-37 0 -53.5 -19.5t-16.5 -62.5h-188q1 82 12.5 128.5t38.5 80.5q63 84 176 84q49 0 96 -10t203 -55q166 -48 213 -48q32 0 43 16.5t11 65.5z" />
    <glyph glyph-name="Odieresis" unicode="&#xd6;" horiz-adv-x="2011" 
d="M1006 1386q430 0 577 -17t225 -77t107 -188t29 -420q0 -293 -29 -421.5t-107 -188.5t-225 -77t-573 -17q-433 0 -581 17t-226 77q-79 61 -107 189t-28 429q0 286 28.5 413t106.5 187t225.5 77t577.5 17zM1006 1032q-136 0 -206.5 -1.5t-129.5 -5.5t-84 -14.5t-41 -24.5
t-29 -40q-19 -35 -26 -101t-7 -198q0 -127 12.5 -181t49.5 -83q41 -32 123 -40.5t342 -8.5q249 0 331.5 9t124.5 40q36 28 49 83t13 179q0 152 -10.5 222t-38.5 104q-25 29 -63.5 41t-123 16t-286.5 4zM500 1868h395v-295h-395v295zM1114 1868h395v-295h-395v295z" />
    <glyph glyph-name="minus" unicode="&#xd7;" 
d="M260 819h1337v-246h-1337v246z" />
    <glyph glyph-name="Oslash" unicode="&#xd8;" horiz-adv-x="2064" 
d="M-37 -43v250l154 88q-21 144 -21 373q0 307 27.5 434.5t107.5 189.5q78 59 226.5 76.5t568.5 17.5q309 0 456.5 -7.5t226.5 -28t136 -66.5l250 143v-249l-149 -86q24 -128 24 -390q0 -310 -27.5 -438t-107.5 -190q-78 -60 -225 -77t-576 -17q-193 0 -311 2.5t-210 9
t-145.5 20.5t-90.5 33t-72 51zM516 524l870 498q-97 10 -264 10q-336 0 -416.5 -6t-121.5 -35q-42 -29 -57 -101.5t-15 -244.5q0 -88 4 -121zM1544 862l-895 -512q56 -10 128 -13t255 -3q258 0 340 8.5t121 40.5q37 29 49 82.5t12 181.5q0 151 -10 215z" />
    <glyph glyph-name="Ugrave" unicode="&#xd9;" horiz-adv-x="1951" 
d="M88 1366h416v-629q3 -162 5 -196.5t9 -75.5q9 -43 30.5 -67t75 -39t133 -20t218.5 -5q216 0 300 12t118 49q25 27 35 66t14 135q4 94 4 141v629h416v-629q-4 -219 -7.5 -284.5t-13.5 -143.5q-17 -117 -91 -194.5t-191 -102.5q-91 -19 -214.5 -25.5t-363.5 -6.5
q-392 0 -552 27.5t-236 109.5q-51 52 -72 127.5t-29 226.5q-2 45 -4 266v629zM545 1661l162 319l505 -364l-82 -156z" />
    <glyph glyph-name="Uacute" unicode="&#xda;" horiz-adv-x="1951" 
d="M88 1366h416v-629q3 -162 5 -196.5t9 -75.5q9 -43 30.5 -67t75 -39t133 -20t218.5 -5q216 0 300 12t118 49q25 27 35 66t14 135q4 94 4 141v629h416v-629q-4 -219 -7.5 -284.5t-13.5 -143.5q-17 -117 -91 -194.5t-191 -102.5q-91 -19 -214.5 -25.5t-363.5 -6.5
q-392 0 -552 27.5t-236 109.5q-51 52 -72 127.5t-29 226.5q-2 45 -4 266v629zM1260 1982l159 -319l-583 -205l-84 162z" />
    <glyph glyph-name="Ucircumflex" unicode="&#xdb;" horiz-adv-x="1951" 
d="M88 1366h416v-629q3 -162 5 -196.5t9 -75.5q9 -43 30.5 -67t75 -39t133 -20t218.5 -5q216 0 300 12t118 49q25 27 35 66t14 135q4 94 4 141v629h416v-629q-4 -219 -7.5 -284.5t-13.5 -143.5q-17 -117 -91 -194.5t-191 -102.5q-91 -19 -214.5 -25.5t-363.5 -6.5
q-392 0 -552 27.5t-236 109.5q-51 52 -72 127.5t-29 226.5q-2 45 -4 266v629zM465 1663l510 276l508 -276l-56 -133l-452 117l-455 -117z" />
    <glyph glyph-name="Udieresis" unicode="&#xdc;" horiz-adv-x="1951" 
d="M88 1366h416v-629q3 -162 5 -196.5t9 -75.5q9 -43 30.5 -67t75 -39t133 -20t218.5 -5q216 0 300 12t118 49q25 27 35 66t14 135q4 94 4 141v629h416v-629q-4 -219 -7.5 -284.5t-13.5 -143.5q-17 -117 -91 -194.5t-191 -102.5q-91 -19 -214.5 -25.5t-363.5 -6.5
q-392 0 -552 27.5t-236 109.5q-51 52 -72 127.5t-29 226.5q-2 45 -4 266v629zM469 1868h395v-295h-395v295zM1083 1868h396v-295h-396v295z" />
    <glyph glyph-name="Yacute" unicode="&#xdd;" horiz-adv-x="1878" 
d="M-41 1366h547l444 -547l426 547h543l-748 -883v-483h-430v483zM1251 1982l160 -319l-584 -205l-84 162z" />
    <glyph glyph-name="Thorn" unicode="&#xde;" horiz-adv-x="1775" 
d="M96 0v1366h416v-137h518q190 0 252 -2t121 -10q132 -20 202 -71t100 -150.5t30 -278.5q0 -225 -48 -330t-171 -149q-69 -23 -165.5 -31t-316.5 -8h-522v-199h-416zM512 541h518q149 2 180.5 4.5t57.5 17.5q29 17 40 50.5t11 105.5q0 73 -16 107t-56 48q-22 8 -52.5 10
t-164.5 3h-518v-346z" />
    <glyph glyph-name="germandbls" unicode="&#xdf;" horiz-adv-x="1546" 
d="M82 0v903q0 158 23.5 234t89.5 135q82 72 200 95.5t402 23.5q197 0 291.5 -15t156.5 -55q123 -81 123 -250q0 -115 -48 -173.5t-165 -84.5q91 -9 140 -24t89 -46q107 -82 107 -303q0 -238 -121.5 -348t-384.5 -110q-163 0 -262 36.5t-145 114.5q-25 41 -34.5 94
t-11.5 152h302q3 -80 28 -103.5t107 -23.5q94 0 126.5 44.5t32.5 172.5q0 97 -19.5 145t-66.5 68q-28 12 -68.5 16t-139.5 4h-218v240h168q122 2 148.5 4t44.5 12q37 18 37 80q0 41 -21.5 61.5t-75.5 29t-163 8.5q-80 0 -131 -6t-88 -19.5t-56 -40.5t-27 -63.5t-8 -94.5
v-913h-362z" />
    <glyph glyph-name="agrave" unicode="&#xe0;" horiz-adv-x="1433" 
d="M453 666h-363q8 106 46.5 168.5t123.5 103.5q123 57 543 57q239 0 325.5 -17.5t147.5 -78.5q46 -50 64 -117.5t18 -197.5v-584h-348v133h-15q-23 -47 -54 -76t-81 -49q-44 -19 -127 -26t-260 -7q-241 0 -331.5 64.5t-90.5 236.5q0 130 50.5 205t156.5 103q65 18 155 24
t294 6q126 0 178.5 -14.5t95.5 -60.5h16v51q0 49 -5.5 76.5t-18 49t-42.5 30t-70.5 12.5t-110.5 4q-85 0 -130.5 -2t-82.5 -6.5t-51.5 -16.5t-22 -27t-10.5 -44zM694 410q-165 0 -222.5 -21.5t-57.5 -81.5q0 -59 52 -79.5t198 -20.5q192 0 259.5 22.5t67.5 87.5q0 60 -63 82
q-32 11 -234 11zM516 1593l422 -419l-92 -119l-514 291z" />
    <glyph glyph-name="aacute" unicode="&#xe1;" horiz-adv-x="1433" 
d="M453 666h-363q8 106 46.5 168.5t123.5 103.5q123 57 543 57q239 0 325.5 -17.5t147.5 -78.5q46 -50 64 -117.5t18 -197.5v-584h-348v133h-15q-23 -47 -54 -76t-81 -49q-44 -19 -127 -26t-260 -7q-241 0 -331.5 64.5t-90.5 236.5q0 130 50.5 205t156.5 103q65 18 155 24
t294 6q126 0 178.5 -14.5t95.5 -60.5h16v51q0 49 -5.5 76.5t-18 49t-42.5 30t-70.5 12.5t-110.5 4q-85 0 -130.5 -2t-82.5 -6.5t-51.5 -16.5t-22 -27t-10.5 -44zM694 410q-165 0 -222.5 -21.5t-57.5 -81.5q0 -59 52 -79.5t198 -20.5q192 0 259.5 22.5t67.5 87.5q0 60 -63 82
q-32 11 -234 11zM528 1176l422 419l185 -247l-512 -295z" />
    <glyph glyph-name="acircumflex" unicode="&#xe2;" horiz-adv-x="1433" 
d="M453 666h-363q8 106 46.5 168.5t123.5 103.5q123 57 543 57q239 0 325.5 -17.5t147.5 -78.5q46 -50 64 -117.5t18 -197.5v-584h-348v133h-15q-23 -47 -54 -76t-81 -49q-44 -19 -127 -26t-260 -7q-241 0 -331.5 64.5t-90.5 236.5q0 130 50.5 205t156.5 103q65 18 155 24
t294 6q126 0 178.5 -14.5t95.5 -60.5h16v51q0 49 -5.5 76.5t-18 49t-42.5 30t-70.5 12.5t-110.5 4q-85 0 -130.5 -2t-82.5 -6.5t-51.5 -16.5t-22 -27t-10.5 -44zM694 410q-165 0 -222.5 -21.5t-57.5 -81.5q0 -59 52 -79.5t198 -20.5q192 0 259.5 22.5t67.5 87.5q0 60 -63 82
q-32 11 -234 11zM248 1221l481 295l483 -295l-57 -121l-426 151l-426 -151z" />
    <glyph glyph-name="atilde" unicode="&#xe3;" horiz-adv-x="1433" 
d="M453 666h-363q8 106 46.5 168.5t123.5 103.5q123 57 543 57q239 0 325.5 -17.5t147.5 -78.5q46 -50 64 -117.5t18 -197.5v-584h-348v133h-15q-23 -47 -54 -76t-81 -49q-44 -19 -127 -26t-260 -7q-241 0 -331.5 64.5t-90.5 236.5q0 130 50.5 205t156.5 103q65 18 155 24
t294 6q126 0 178.5 -14.5t95.5 -60.5h16v51q0 49 -5.5 76.5t-18 49t-42.5 30t-70.5 12.5t-110.5 4q-85 0 -130.5 -2t-82.5 -6.5t-51.5 -16.5t-22 -27t-10.5 -44zM694 410q-165 0 -222.5 -21.5t-57.5 -81.5q0 -59 52 -79.5t198 -20.5q192 0 259.5 22.5t67.5 87.5q0 60 -63 82
q-32 11 -234 11zM1020 1442h180q0 -95 -8 -143.5t-31 -86.5q-50 -86 -143 -86q-87 0 -275 70q-107 40 -154 54t-77 14q-38 0 -55.5 -25.5t-18.5 -85.5h-180q1 88 11.5 137.5t35.5 87.5q59 90 166 90q49 0 95.5 -12.5t191.5 -66.5q160 -58 205 -58q41 0 51 41q6 21 6 70z" />
    <glyph glyph-name="adieresis" unicode="&#xe4;" horiz-adv-x="1433" 
d="M453 666h-363q8 106 46.5 168.5t123.5 103.5q123 57 543 57q239 0 325.5 -17.5t147.5 -78.5q46 -50 64 -117.5t18 -197.5v-584h-348v133h-15q-23 -47 -54 -76t-81 -49q-44 -19 -127 -26t-260 -7q-241 0 -331.5 64.5t-90.5 236.5q0 130 50.5 205t156.5 103q65 18 155 24
t294 6q126 0 178.5 -14.5t95.5 -60.5h16v51q0 49 -5.5 76.5t-18 49t-42.5 30t-70.5 12.5t-110.5 4q-85 0 -130.5 -2t-82.5 -6.5t-51.5 -16.5t-22 -27t-10.5 -44zM694 410q-165 0 -222.5 -21.5t-57.5 -81.5q0 -59 52 -79.5t198 -20.5q192 0 259.5 22.5t67.5 87.5q0 60 -63 82
q-32 11 -234 11zM272 1427h383v-260h-383v260zM791 1427h383v-260h-383v260z" />
    <glyph glyph-name="aring" unicode="&#xe5;" horiz-adv-x="1433" 
d="M453 666h-363q8 106 46.5 168.5t123.5 103.5q123 57 543 57q239 0 325.5 -17.5t147.5 -78.5q46 -50 64 -117.5t18 -197.5v-584h-348v133h-15q-23 -47 -54 -76t-81 -49q-44 -19 -127 -26t-260 -7q-241 0 -331.5 64.5t-90.5 236.5q0 130 50.5 205t156.5 103q65 18 155 24
t294 6q126 0 178.5 -14.5t95.5 -60.5h16v51q0 49 -5.5 76.5t-18 49t-42.5 30t-70.5 12.5t-110.5 4q-85 0 -130.5 -2t-82.5 -6.5t-51.5 -16.5t-22 -27t-10.5 -44zM694 410q-165 0 -222.5 -21.5t-57.5 -81.5q0 -59 52 -79.5t198 -20.5q192 0 259.5 22.5t67.5 87.5q0 60 -63 82
q-32 11 -234 11zM838 1673q55 0 91 -3.5t65 -16t44.5 -30.5t26 -52t13.5 -76t3 -106q0 -133 -5.5 -174.5t-28.5 -71.5q-11 -14 -20 -22.5t-30.5 -16t-45 -10.5t-73.5 -5.5t-105.5 -3t-151.5 -0.5q-76 0 -117 11t-64 37q-29 32 -38 83.5t-9 182.5q0 141 24.5 195t94.5 67
q62 12 326 12zM748 1487q-110 0 -139 -18.5t-29 -90.5t26 -90t127 -18q106 0 135 19t29 89q0 69 -27.5 89t-121.5 20z" />
    <glyph glyph-name="ae" unicode="&#xe6;" horiz-adv-x="2334" 
d="M1921 309h354q-10 -84 -34 -139t-67.5 -95t-121 -60.5t-182 -30t-262.5 -9.5q-230 0 -328.5 28t-151.5 108h-16q-50 -80 -154 -108t-352 -28q-231 0 -317.5 11t-138.5 45q-99 66 -99 254q0 135 55 209.5t173 99.5q66 14 143 18t258 4q144 0 200 -14t103 -61h16v49
q0 43 -2.5 67.5t-14.5 46t-28.5 31.5t-52.5 17t-78 8.5t-114 1.5q-119 0 -166 -6t-65 -23t-21 -61h-363q5 85 30.5 139t80.5 94q71 51 186.5 69.5t364.5 18.5q187 0 271 -27.5t140 -107.5h23q36 57 88 85t143 39t265 11q183 0 282 -15t162 -52q83 -49 116 -142t33 -276v-102
h-940q1 -45 6 -74t18.5 -53t33.5 -36.5t57 -21.5t82 -11.5t115 -2.5q198 0 243 39q15 15 27 63zM686 416q-173 0 -215 -19q-57 -22 -57 -88q0 -61 53.5 -81.5t212.5 -20.5q127 0 192.5 9.5t93 32t27.5 66.5q0 73 -71 93q-31 8 -236 8zM1339 604h578q0 57 -5 78t-20 39
q-47 47 -247 47q-99 0 -154 -5.5t-90.5 -24.5t-47.5 -49t-14 -85z" />
    <glyph glyph-name="ccedilla" unicode="&#xe7;" horiz-adv-x="1431" 
d="M729 -25v-84h148q70 0 92 -23t22 -95v-199q0 -80 -22 -99.5t-113 -19.5h-281v148h173q41 0 52 10.5t11 50.5v29q0 40 -9.5 48.5t-53.5 8.5h-166v227q-141 3 -223 17.5t-142 46.5q-95 51 -128.5 144t-33.5 307q0 175 25 263.5t90 141.5q69 57 184.5 77.5t362.5 20.5
q243 0 364.5 -21.5t190.5 -78.5q58 -46 81.5 -114.5t28.5 -205.5h-368q-9 83 -74 115.5t-223 32.5q-99 0 -154 -8.5t-89.5 -37t-45 -73t-10.5 -125.5q0 -95 18.5 -139t67.5 -64q70 -28 219 -28q158 0 217.5 29t71.5 112h368q-2 -104 -21.5 -173t-61.5 -118.5t-119.5 -75.5
t-183.5 -37t-265 -10z" />
    <glyph glyph-name="egrave" unicode="&#xe8;" horiz-adv-x="1419" 
d="M997 309h361q-8 -83 -32 -138t-68.5 -95t-123.5 -61t-186 -30.5t-268 -9.5q-210 0 -323 20.5t-179 70.5q-71 54 -97 142t-26 273q0 195 27.5 284.5t103.5 143.5q71 50 183 68t348 18q246 0 355 -19t175 -73q65 -54 92 -144.5t27 -254.5q0 -57 -2 -98h-946
q0 -73 9.5 -105.5t35.5 -52.5q55 -41 246 -41q120 0 176 8t80.5 28.5t31.5 65.5zM418 604h583q-2 58 -6.5 79t-21.5 38q-46 49 -250 49q-126 0 -188.5 -14t-88.5 -48t-28 -104zM510 1593l422 -419l-92 -119l-514 291z" />
    <glyph glyph-name="eacute" unicode="&#xe9;" horiz-adv-x="1419" 
d="M997 309h361q-8 -83 -32 -138t-68.5 -95t-123.5 -61t-186 -30.5t-268 -9.5q-210 0 -323 20.5t-179 70.5q-71 54 -97 142t-26 273q0 195 27.5 284.5t103.5 143.5q71 50 183 68t348 18q246 0 355 -19t175 -73q65 -54 92 -144.5t27 -254.5q0 -57 -2 -98h-946
q0 -73 9.5 -105.5t35.5 -52.5q55 -41 246 -41q120 0 176 8t80.5 28.5t31.5 65.5zM418 604h583q-2 58 -6.5 79t-21.5 38q-46 49 -250 49q-126 0 -188.5 -14t-88.5 -48t-28 -104zM508 1176l422 419l184 -247l-512 -295z" />
    <glyph glyph-name="ecircumflex" unicode="&#xea;" horiz-adv-x="1419" 
d="M997 309h361q-8 -83 -32 -138t-68.5 -95t-123.5 -61t-186 -30.5t-268 -9.5q-210 0 -323 20.5t-179 70.5q-71 54 -97 142t-26 273q0 195 27.5 284.5t103.5 143.5q71 50 183 68t348 18q246 0 355 -19t175 -73q65 -54 92 -144.5t27 -254.5q0 -57 -2 -98h-946
q0 -73 9.5 -105.5t35.5 -52.5q55 -41 246 -41q120 0 176 8t80.5 28.5t31.5 65.5zM418 604h583q-2 58 -6.5 79t-21.5 38q-46 49 -250 49q-126 0 -188.5 -14t-88.5 -48t-28 -104zM242 1221l481 295l483 -295l-57 -121l-426 151l-426 -151z" />
    <glyph glyph-name="edieresis" unicode="&#xeb;" horiz-adv-x="1419" 
d="M997 309h361q-8 -83 -32 -138t-68.5 -95t-123.5 -61t-186 -30.5t-268 -9.5q-210 0 -323 20.5t-179 70.5q-71 54 -97 142t-26 273q0 195 27.5 284.5t103.5 143.5q71 50 183 68t348 18q246 0 355 -19t175 -73q65 -54 92 -144.5t27 -254.5q0 -57 -2 -98h-946
q0 -73 9.5 -105.5t35.5 -52.5q55 -41 246 -41q120 0 176 8t80.5 28.5t31.5 65.5zM418 604h583q-2 58 -6.5 79t-21.5 38q-46 49 -250 49q-126 0 -188.5 -14t-88.5 -48t-28 -104zM266 1427h383v-260h-383v260zM784 1427h383v-260h-383v260z" />
    <glyph glyph-name="igrave" unicode="&#xec;" horiz-adv-x="526" 
d="M82 969h362v-969h-362v969zM100 1602l330 -474l-106 -96l-443 365z" />
    <glyph glyph-name="iacute" unicode="&#xed;" horiz-adv-x="526" 
d="M82 969h362v-969h-362v969zM86 1130l334 474l217 -207l-440 -367z" />
    <glyph glyph-name="icircumflex" unicode="&#xee;" horiz-adv-x="526" 
d="M82 969h362v-969h-362v969zM264 1251l-278 -145l-68 115l346 295l344 -295l-67 -115z" />
    <glyph glyph-name="idieresis" unicode="&#xef;" horiz-adv-x="526" 
d="M82 969h362v-969h-362v969zM-127 1427h342v-260h-342v260zM309 1427h342v-260h-342v260z" />
    <glyph glyph-name="eth" unicode="&#xf0;" horiz-adv-x="1480" 
d="M907 1337l273 97l47 -138l-213 -75l291 -312q68 -75 100 -180q22 -73 22 -237q0 -191 -23 -278.5t-89 -141.5q-69 -57 -186.5 -77t-387.5 -20q-269 0 -386.5 20t-186.5 77q-66 54 -89.5 141t-23.5 276q0 171 26.5 254.5t98.5 135.5q46 34 103 50t163 27q121 11 234 11
q72 0 221 -13l-145 176l-273 -96l-47 137l221 78l-112 137h315zM743 721q-87 0 -140.5 -6t-92.5 -20t-57.5 -43.5t-26.5 -69.5t-8 -105q0 -97 16.5 -137.5t65.5 -60.5q70 -31 243 -31q72 0 119 3t85.5 13.5t59.5 26t35 44t18.5 63.5t4.5 89q0 98 -18.5 141.5t-69.5 63.5
q-73 29 -234 29z" />
    <glyph glyph-name="ntilde" unicode="&#xf1;" horiz-adv-x="1472" 
d="M82 969h342v-148h18q50 94 143 133t269 39q173 0 272.5 -27.5t163.5 -93.5q66 -69 86.5 -151t20.5 -281v-440h-363v440q0 118 -8 159t-37 69q-29 29 -85.5 41t-158.5 12q-99 0 -157 -15t-90 -49q-34 -35 -44 -86t-10 -184v-387h-362v969zM1047 1442h180q0 -95 -8 -143.5
t-31 -86.5q-50 -86 -144 -86q-86 0 -274 70q-107 40 -154 54t-77 14q-38 0 -55.5 -25.5t-18.5 -85.5h-180q1 88 11.5 137.5t35.5 87.5q59 90 166 90q49 0 94.5 -12.5t191.5 -66.5q160 -58 205 -58q41 0 51 41q7 24 7 70z" />
    <glyph glyph-name="ograve" unicode="&#xf2;" horiz-adv-x="1480" 
d="M741 993q249 0 371.5 -19t190.5 -69q73 -54 98.5 -136.5t25.5 -266.5q0 -199 -23 -286.5t-89 -143.5q-69 -57 -186.5 -77t-385.5 -20q-271 0 -388.5 20t-186.5 77q-68 56 -90.5 145t-22.5 299q0 171 26.5 254t98.5 135q67 49 190 68.5t371 19.5zM743 721q-87 0 -140.5 -6
t-92.5 -20t-57.5 -43.5t-26.5 -69.5t-8 -105q0 -97 16.5 -137.5t65.5 -60.5q70 -31 243 -31q72 0 119 3t85.5 13.5t59.5 26t35 44t18.5 63.5t4.5 89q0 98 -18.5 141.5t-69.5 63.5q-73 29 -234 29zM526 1593l422 -419l-92 -119l-514 291z" />
    <glyph glyph-name="oacute" unicode="&#xf3;" horiz-adv-x="1480" 
d="M741 993q249 0 371.5 -19t190.5 -69q73 -54 98.5 -136.5t25.5 -266.5q0 -199 -23 -286.5t-89 -143.5q-69 -57 -186.5 -77t-385.5 -20q-271 0 -388.5 20t-186.5 77q-68 56 -90.5 145t-22.5 299q0 171 26.5 254t98.5 135q67 49 190 68.5t371 19.5zM743 721q-87 0 -140.5 -6
t-92.5 -20t-57.5 -43.5t-26.5 -69.5t-8 -105q0 -97 16.5 -137.5t65.5 -60.5q70 -31 243 -31q72 0 119 3t85.5 13.5t59.5 26t35 44t18.5 63.5t4.5 89q0 98 -18.5 141.5t-69.5 63.5q-73 29 -234 29zM539 1176l422 419l184 -247l-512 -295z" />
    <glyph glyph-name="ocircumflex" unicode="&#xf4;" horiz-adv-x="1480" 
d="M741 993q249 0 371.5 -19t190.5 -69q73 -54 98.5 -136.5t25.5 -266.5q0 -199 -23 -286.5t-89 -143.5q-69 -57 -186.5 -77t-385.5 -20q-271 0 -388.5 20t-186.5 77q-68 56 -90.5 145t-22.5 299q0 171 26.5 254t98.5 135q67 49 190 68.5t371 19.5zM743 721q-87 0 -140.5 -6
t-92.5 -20t-57.5 -43.5t-26.5 -69.5t-8 -105q0 -97 16.5 -137.5t65.5 -60.5q70 -31 243 -31q72 0 119 3t85.5 13.5t59.5 26t35 44t18.5 63.5t4.5 89q0 98 -18.5 141.5t-69.5 63.5q-73 29 -234 29zM260 1221l481 295l484 -295l-58 -121l-426 151l-426 -151z" />
    <glyph glyph-name="otilde" unicode="&#xf5;" horiz-adv-x="1480" 
d="M741 993q249 0 371.5 -19t190.5 -69q73 -54 98.5 -136.5t25.5 -266.5q0 -199 -23 -286.5t-89 -143.5q-69 -57 -186.5 -77t-385.5 -20q-271 0 -388.5 20t-186.5 77q-68 56 -90.5 145t-22.5 299q0 171 26.5 254t98.5 135q67 49 190 68.5t371 19.5zM743 721q-87 0 -140.5 -6
t-92.5 -20t-57.5 -43.5t-26.5 -69.5t-8 -105q0 -97 16.5 -137.5t65.5 -60.5q70 -31 243 -31q72 0 119 3t85.5 13.5t59.5 26t35 44t18.5 63.5t4.5 89q0 98 -18.5 141.5t-69.5 63.5q-73 29 -234 29zM1032 1442h180q0 -96 -7.5 -144.5t-30.5 -85.5q-50 -86 -144 -86
q-86 0 -274 70q-181 68 -232 68q-38 0 -54.5 -25.5t-18.5 -85.5h-181q1 88 11.5 137.5t35.5 87.5q59 90 166 90q49 0 95.5 -12.5t191.5 -66.5q160 -58 205 -58q41 0 51 41q6 21 6 70z" />
    <glyph glyph-name="odieresis" unicode="&#xf6;" horiz-adv-x="1480" 
d="M741 993q249 0 371.5 -19t190.5 -69q73 -54 98.5 -136.5t25.5 -266.5q0 -199 -23 -286.5t-89 -143.5q-69 -57 -186.5 -77t-385.5 -20q-271 0 -388.5 20t-186.5 77q-68 56 -90.5 145t-22.5 299q0 171 26.5 254t98.5 135q67 49 190 68.5t371 19.5zM743 721q-87 0 -140.5 -6
t-92.5 -20t-57.5 -43.5t-26.5 -69.5t-8 -105q0 -97 16.5 -137.5t65.5 -60.5q70 -31 243 -31q72 0 119 3t85.5 13.5t59.5 26t35 44t18.5 63.5t4.5 89q0 98 -18.5 141.5t-69.5 63.5q-73 29 -234 29zM291 1427h383v-260h-383v260zM809 1427h383v-260h-383v260z" />
    <glyph glyph-name="multiply" unicode="&#xf7;" 
d="M928 522l-410 -409l-174 174l410 409l-410 410l174 174l410 -410l409 410l174 -174l-409 -410l409 -409l-174 -174z" />
    <glyph glyph-name="oslash" unicode="&#xf8;" horiz-adv-x="1517" 
d="M1511 1018v-174l-100 -58q22 -54 28.5 -108.5t6.5 -177.5q0 -197 -23.5 -285.5t-89.5 -142.5q-69 -57 -186.5 -77t-390.5 -20q-266 0 -382.5 20t-185.5 77l-188 -111v174l104 60q-18 54 -24 115t-6 188q0 138 8.5 199.5t36.5 115.5q55 106 187.5 143t453.5 37
q250 0 369 -18.5t192 -69.5zM1075 590l-543 -318q84 -24 230 -24q72 0 119 3t85.5 13.5t59 26t34.5 44t18.5 63.5t4.5 89t-8 103zM440 391l531 309q-91 21 -205 21q-89 0 -143 -6t-94 -20t-58.5 -43.5t-26.5 -69.5t-8 -105q0 -49 4 -86z" />
    <glyph glyph-name="ugrave" unicode="&#xf9;" horiz-adv-x="1468" 
d="M1389 0h-342v145h-19q-41 -92 -136 -131t-278 -39q-168 0 -267 28.5t-165 94.5q-66 67 -86 148.5t-20 279.5v443h362v-443q0 -106 10 -150.5t39 -72.5q32 -31 82.5 -42t153.5 -11q97 0 151.5 12t88.5 41q38 34 50.5 88t12.5 189v389h363v-969zM535 1593l421 -419
l-92 -119l-514 291z" />
    <glyph glyph-name="uacute" unicode="&#xfa;" horiz-adv-x="1468" 
d="M1389 0h-342v145h-19q-41 -92 -136 -131t-278 -39q-168 0 -267 28.5t-165 94.5q-66 67 -86 148.5t-20 279.5v443h362v-443q0 -106 10 -150.5t39 -72.5q32 -31 82.5 -42t153.5 -11q97 0 151.5 12t88.5 41q38 34 50.5 88t12.5 189v389h363v-969zM520 1176l422 419l184 -247
l-512 -295z" />
    <glyph glyph-name="ucircumflex" unicode="&#xfb;" horiz-adv-x="1468" 
d="M1389 0h-342v145h-19q-41 -92 -136 -131t-278 -39q-168 0 -267 28.5t-165 94.5q-66 67 -86 148.5t-20 279.5v443h362v-443q0 -106 10 -150.5t39 -72.5q32 -31 82.5 -42t153.5 -11q97 0 151.5 12t88.5 41q38 34 50.5 88t12.5 189v389h363v-969zM266 1221l482 295l483 -295
l-57 -121l-426 151l-426 -151z" />
    <glyph glyph-name="udieresis" unicode="&#xfc;" horiz-adv-x="1468" 
d="M1389 0h-342v145h-19q-41 -92 -136 -131t-278 -39q-168 0 -267 28.5t-165 94.5q-66 67 -86 148.5t-20 279.5v443h362v-443q0 -106 10 -150.5t39 -72.5q32 -31 82.5 -42t153.5 -11q97 0 151.5 12t88.5 41q38 34 50.5 88t12.5 189v389h363v-969zM285 1427h383v-260h-383
v260zM803 1427h383v-260h-383v260z" />
    <glyph glyph-name="yacute" unicode="&#xfd;" horiz-adv-x="1329" 
d="M-27 969h398l276 -705l307 705h402l-516 -1094q-54 -114 -77 -156t-40.5 -62t-50.5 -40q-85 -53 -264 -53q-118 0 -156 6v248q20 2 82 2q90 -1 131.5 33t85.5 147h-145zM451 1176l421 419l185 -247l-512 -295z" />
    <glyph glyph-name="thorn" unicode="&#xfe;" horiz-adv-x="1503" 
d="M82 -403v1769h342v-528h18q47 89 141.5 122t303.5 33q189 0 294.5 -24t166.5 -82q58 -54 79 -139.5t21 -268.5q0 -110 -8.5 -184t-34.5 -133.5t-64.5 -93t-106.5 -56t-153 -30t-211 -7.5q-184 0 -269.5 31.5t-139.5 118.5h-17v-528h-362zM778 721q-78 0 -126.5 -3
t-89 -13.5t-61 -26t-35 -45.5t-18.5 -66t-4 -94q0 -59 8.5 -96t27.5 -64t57.5 -40.5t91.5 -19t137 -5.5q206 0 264 43q32 23 43.5 68t11.5 141q0 59 -7.5 95t-25.5 62.5t-55 39.5t-87.5 18.5t-131.5 5.5z" />
    <glyph glyph-name="ydieresis" unicode="&#xff;" horiz-adv-x="1329" 
d="M-27 969h398l276 -705l307 705h402l-516 -1094q-54 -114 -77 -156t-40.5 -62t-50.5 -40q-85 -53 -264 -53q-118 0 -156 6v248q20 2 82 2q90 -1 131.5 33t85.5 147h-145zM215 1427h383v-260h-383v260zM733 1427h383v-260h-383v260z" />
    <glyph glyph-name="dotlessi" unicode="&#x131;" horiz-adv-x="526" 
d="M82 969h362v-969h-362v969z" />
    <glyph glyph-name="Lslash" unicode="&#x141;" horiz-adv-x="1523" 
d="M115 1366h436v-453l309 201v-246l-309 -198v-322h973v-348h-1409v406l-117 -76v243l117 76v717z" />
    <glyph glyph-name="lslash" unicode="&#x142;" horiz-adv-x="634" 
d="M137 1366h363v-442l151 98v-223l-151 -101v-698h-363v483l-153 -98v223l153 101v657z" />
    <glyph glyph-name="OE" unicode="&#x152;" horiz-adv-x="3084" 
d="M3039 1366v-322h-1102v-198h1047v-301h-1047v-217h1112v-328h-1470q-164 -20 -514 -20q-386 0 -590 26t-282 84q-52 38 -77.5 98t-36.5 168.5t-11 309.5q0 307 31.5 440.5t117.5 193.5q71 50 220.5 68t486.5 18q146 0 342.5 -6.5t279.5 -13.5h1493zM1528 684v68
q3 134 -19.5 185.5t-91.5 68.5q-44 9 -171 16.5t-257 7.5q-338 0 -414 -29q-53 -23 -72.5 -97t-19.5 -247q0 -52 0.5 -84t5.5 -67t10 -54.5t20 -40.5t28.5 -31t43 -20.5t56.5 -14t76 -7t94 -4t117 -0.5q382 0 469 18q54 10 79 39.5t35 93.5t11 199z" />
    <glyph glyph-name="oe" unicode="&#x153;" horiz-adv-x="2416" 
d="M1241 858h27q59 78 167 107.5t339 29.5q199 0 305.5 -20t169.5 -70q63 -53 88.5 -141.5t25.5 -257.5q0 -59 -2 -100h-936q1 -46 5 -75t16.5 -53t31.5 -36.5t54.5 -21t79.5 -11t112 -2.5q111 0 164 7t77 25t32 56l4 14h356q-8 -82 -31.5 -137t-67 -95t-119.5 -61.5
t-179 -31t-256 -9.5q-183 0 -287.5 31t-175.5 105h-20q-63 -75 -170.5 -105.5t-315.5 -30.5q-240 0 -363 21t-194 74q-70 51 -96.5 138.5t-26.5 270.5q0 193 32 290.5t110 150.5q66 43 175 59t333 16q234 0 350 -29.5t186 -107.5zM735 721q-72 0 -118.5 -3t-84 -13.5
t-58 -26t-34.5 -43.5t-18 -62.5t-4 -87.5q0 -100 14 -139.5t57 -62.5q68 -35 263 -35q103 0 160 8t93 35.5t47 71t11 122.5q0 53 -4.5 87.5t-18.5 62.5t-35 43.5t-60 26t-87.5 13.5t-122.5 3zM2001 604l-2 25q-1 61 -23 89.5t-76.5 40t-168.5 11.5q-82 0 -130 -3.5
t-84.5 -12.5t-54 -29.5t-26 -47.5t-11.5 -73h576z" />
    <glyph glyph-name="Scaron" unicode="&#x160;" horiz-adv-x="1767" 
d="M47 453h404q0 -62 8 -88t33 -41q29 -19 93.5 -24t282.5 -5q302 0 365 10q62 10 75 42q7 17 7 69q0 62 -32 82.5t-132 21.5l-328 12l-221 11l-110 4q-130 4 -210.5 23.5t-132 66.5t-71 119t-19.5 188q0 195 61 291t202 127q120 24 596 24q300 0 432.5 -17t203.5 -66
q62 -41 88.5 -112t26.5 -192q0 -36 -2 -63h-401q-3 58 -10.5 79t-30.5 34q-27 15 -94.5 19.5t-286.5 4.5q-264 0 -322.5 -16.5t-58.5 -91.5q0 -74 61 -88q53 -14 439 -25q339 -11 449.5 -25t176.5 -55q71 -46 100 -124t29 -220q0 -178 -46 -273t-152 -135
q-61 -23 -206 -31.5t-456 -8.5q-320 0 -467 17t-219 62q-71 44 -98 115.5t-27 212.5v66zM1382 1778l-508 -277l-509 277l55 133l454 -117l453 117z" />
    <glyph glyph-name="scaron" unicode="&#x161;" horiz-adv-x="1439" 
d="M51 309h369q4 -63 68 -85.5t235 -22.5q177 0 240 18.5t63 71.5q0 29 -22 47.5t-62 23.5q-86 7 -496 7q-206 3 -297.5 72.5t-91.5 224.5q0 113 41 181.5t127 100.5q113 45 502 45q248 0 360 -19t173 -71q38 -31 54.5 -76t22.5 -133h-368q-9 34 -25 45q-45 29 -227 29
q-170 0 -233.5 -17t-63.5 -63q0 -57 86 -63q102 -7 495 -9q211 -2 299.5 -70t88.5 -231q0 -86 -19 -142t-62.5 -96.5t-126.5 -61.5t-196.5 -30.5t-288.5 -9.5q-265 0 -380 20.5t-179 80.5q-44 40 -64.5 94t-21.5 139zM1202 1374l-483 -297l-481 297l55 121l426 -152l426 152
z" />
    <glyph glyph-name="Ydieresis" unicode="&#x178;" horiz-adv-x="1878" 
d="M-41 1366h547l444 -547l426 547h543l-748 -883v-483h-430v483zM434 1868h395v-295h-395v295zM1049 1868h395v-295h-395v295z" />
    <glyph glyph-name="Zcaron" unicode="&#x17d;" horiz-adv-x="1771" 
d="M63 1366h1637v-313l-1000 -725l1031 14v-342h-1690v319l987 719l-965 -14v342zM1380 1778l-508 -277l-510 277l56 133l454 -117l453 117z" />
    <glyph glyph-name="zcaron" unicode="&#x17e;" horiz-adv-x="1247" 
d="M78 969h1114v-277l-598 -440h618v-252h-1177v250l622 473h-579v246zM1106 1374l-483 -297l-482 297l56 121l426 -152l426 152z" />
    <glyph glyph-name="florin" unicode="&#x192;" horiz-adv-x="1366" 
d="M518 655h-242l48 260h239l15 66q31 163 78.5 240.5t144.5 121.5q58 27 138 37.5t228 10.5q100 0 191 -7l-43 -237q-49 2 -94 2q-153 0 -205 -41q-26 -22 -38.5 -56.5t-31.5 -136.5h357l-46 -260h-356l-90 -508q-23 -132 -58 -206t-96 -121q-67 -54 -156 -73t-265 -19
q-113 0 -209 4l43 239q76 -2 94 -2q100 0 150.5 14.5t75.5 51t38 112.5z" />
    <glyph glyph-name="circumflex" unicode="&#x2c6;" horiz-adv-x="1024" 
d="M31 1221l481 295l483 -295l-57 -121l-426 151l-426 -151z" />
    <glyph glyph-name="caron" unicode="&#x2c7;" horiz-adv-x="1024" 
d="M995 1374l-483 -297l-481 297l55 121l426 -152l426 152z" />
    <glyph glyph-name="breve" unicode="&#x2d8;" horiz-adv-x="1024" 
d="M35 1473h196q28 -78 92.5 -112t188.5 -34q123 0 188 34t91 112h196q-25 -167 -147.5 -259t-321.5 -92q-202 0 -329.5 93t-153.5 258z" />
    <glyph glyph-name="dotaccent" unicode="&#x2d9;" horiz-adv-x="1024" 
d="M317 1430h392v-267h-392v267z" />
    <glyph glyph-name="ring" unicode="&#x2da;" horiz-adv-x="1024" 
d="M612 1673q66 0 106 -6.5t69.5 -22.5t43 -50.5t19.5 -81t6 -123.5q0 -131 -6 -173t-29 -73q-11 -14 -20 -22.5t-30.5 -16t-45 -10.5t-73.5 -5.5t-105.5 -3t-151.5 -0.5q-76 0 -116.5 11t-63.5 37q-29 32 -38 83.5t-9 182.5q0 141 24.5 195t94.5 67q61 12 325 12zM522 1487
q-110 0 -139 -18.5t-29 -90.5t26 -90t128 -18q106 0 135 19t29 89q0 69 -28 89t-122 20z" />
    <glyph glyph-name="ogonek" unicode="&#x2db;" horiz-adv-x="1024" 
d="M684 0h180l-157 -152q-48 -45 -48 -90q0 -37 28.5 -57t80.5 -20h100v-160h-159q-113 0 -174.5 44t-61.5 126v59q0 95 68 144z" />
    <glyph glyph-name="tilde" unicode="&#x2dc;" horiz-adv-x="1024" 
d="M803 1442h180q0 -95 -8 -143.5t-31 -86.5q-50 -86 -143 -86q-87 0 -275 70q-107 40 -154 54t-77 14q-38 0 -55.5 -25.5t-18.5 -85.5h-180q1 88 11.5 137.5t35.5 87.5q59 90 166 90q49 0 95.5 -12.5t191.5 -66.5q160 -58 204 -58q42 0 52 41q6 21 6 70z" />
    <glyph glyph-name="hungarumlaut" unicode="&#x2dd;" horiz-adv-x="1024" 
d="M678 1378l-477 -321l-88 98l383 438zM1128 1378l-477 -321l-88 98l383 438z" />
    <glyph glyph-name="endash" unicode="&#x2013;" horiz-adv-x="1413" 
d="M68 631h1278v-279h-1278v279z" />
    <glyph glyph-name="emdash" unicode="&#x2014;" horiz-adv-x="2273" 
d="M68 631h2138v-279h-2138v279z" />
    <glyph glyph-name="quoteleft" unicode="&#x2018;" horiz-adv-x="684" 
d="M545 600h-436v397q0 130 11 193.5t42 101.5q38 49 105 65.5t231 16.5q59 0 104 -2v-215h-31h-34q-56 0 -80.5 -26.5t-24.5 -86.5v-38h113v-406z" />
    <glyph glyph-name="quoteright" unicode="&#x2019;" horiz-adv-x="684" 
d="M139 1366h436v-397q0 -130 -11 -193.5t-42 -101.5q-40 -50 -105.5 -66t-230.5 -16q-59 0 -104 2v215h31h37q54 0 78 26.5t24 86.5v39h-113v405z" />
    <glyph glyph-name="quotesinglbase" unicode="&#x201a;" horiz-adv-x="684" 
d="M139 406h436v-398q0 -129 -11.5 -192t-41.5 -101q-40 -50 -105.5 -66t-230.5 -16q-59 0 -104 2v215h31h37q54 0 78 26t24 85v39h-113v406z" />
    <glyph glyph-name="quotedblleft" unicode="&#x201c;" horiz-adv-x="1239" 
d="M1114 600h-416v397q0 128 11 191.5t39 103.5q35 50 95.5 66t209.5 16q59 0 104 -2v-201h-27h-26q-59 0 -85 -26t-26 -86v-53h121v-406zM524 600h-415v397q0 129 10.5 192t38.5 103q35 50 95.5 66t209.5 16q59 0 104 -2v-201h-30h-23q-59 0 -85 -26t-26 -86v-53h121v-406z
" />
    <glyph glyph-name="quotedblright" unicode="&#x201d;" horiz-adv-x="1239" 
d="M125 1366h416v-397q0 -128 -10.5 -191.5t-38.5 -101.5q-35 -49 -96 -65.5t-210 -16.5q-61 0 -104 2v201h27h26q59 0 85 26t26 86v52h-121v405zM715 1366h415v-397q0 -128 -10.5 -191.5t-38.5 -101.5q-35 -50 -95.5 -66t-209.5 -16q-61 0 -104 2v201h30h23q59 0 85 26
t26 86v52h-121v405z" />
    <glyph glyph-name="quotedblbase" unicode="&#x201e;" horiz-adv-x="1239" 
d="M125 406h416v-398q0 -128 -10.5 -191.5t-38.5 -101.5q-35 -49 -96 -65.5t-210 -16.5q-61 0 -104 2v201h27h26q59 0 85 26.5t26 86.5v51h-121v406zM715 406h415v-398q0 -128 -10.5 -191.5t-38.5 -101.5q-35 -50 -95.5 -66t-209.5 -16q-61 0 -104 2v201h30h23q59 0 85 26.5
t26 86.5v51h-121v406z" />
    <glyph glyph-name="dagger" unicode="&#x2020;" 
d="M715 -190v1056h-527v281h527v436h409v-436h525v-281h-525v-1056h-409z" />
    <glyph glyph-name="daggerdbl" unicode="&#x2021;" 
d="M715 866h-527v281h527v436h409v-436h525v-281h-525v-319h525v-281h-525v-456h-409v456h-527v281h527v319z" />
    <glyph glyph-name="bullet" unicode="&#x2022;" horiz-adv-x="1366" 
d="M688 977q115 0 198 -83.5t83 -199.5q0 -118 -83 -201t-200 -83q-118 0 -201.5 82.5t-83.5 199.5q0 120 83.5 202.5t203.5 82.5z" />
    <glyph glyph-name="ellipsis" unicode="&#x2026;" horiz-adv-x="2007" 
d="M117 362h436v-362h-436v362zM786 362h437v-362h-437v362zM1454 362h436v-362h-436v362z" />
    <glyph glyph-name="perthousand" unicode="&#x2030;" horiz-adv-x="3913" 
d="M584 1386q356 0 458 -57q50 -28 65 -94t15 -256q0 -91 -2.5 -144.5t-8.5 -95.5t-20 -64t-32.5 -36t-50.5 -25q-115 -43 -426 -43q-331 0 -441 47q-44 19 -64 54t-28 105.5t-8 215.5q0 88 3.5 141.5t11 94.5t25 63.5t41 37t62.5 24.5q53 14 166.5 23t233.5 9zM578 1174
q-192 0 -246 -23q-28 -13 -39.5 -52t-11.5 -116q0 -97 14 -134.5t55 -49.5q63 -17 228 -17q186 0 253 23q26 8 38 48t12 126q0 94 -19 143q-6 20 -26 28.5t-78 14.5q-88 9 -180 9zM2007 1399l141 -162l-1407 -1270l-143 162zM2144 801q163 0 289.5 -15t181.5 -41
q40 -18 58 -50.5t25 -99t7 -204.5q0 -79 -1.5 -128t-6.5 -91t-13 -64.5t-23.5 -41t-34.5 -28t-50 -18.5q-128 -40 -434 -40q-315 0 -426 51q-32 15 -49.5 34t-29 63t-14.5 105.5t-3 172.5q0 143 10.5 209.5t38.5 99t90 51.5q129 35 385 35zM2144 586q-174 0 -231 -23
q-28 -10 -39.5 -49t-11.5 -121q0 -101 14 -137.5t55 -48.5q65 -14 211 -14q210 0 271 22q28 7 39.5 48t11.5 126q0 97 -14.5 134t-55.5 46q-87 17 -250 17zM3312 801q163 0 289.5 -15t181.5 -41q40 -18 58 -50.5t25 -99t7 -204.5q0 -79 -1.5 -128t-6.5 -91t-13 -64.5
t-23.5 -41t-34.5 -28t-50 -18.5q-128 -40 -434 -40q-315 0 -426 51q-43 19 -62.5 53.5t-27 105t-7.5 216.5q0 142 11 209.5t39 99.5t90 51q129 35 385 35zM3312 586q-174 0 -232 -23q-28 -10 -39.5 -49t-11.5 -121q0 -100 14 -137t56 -49q65 -14 211 -14q209 0 270 22
q28 7 39.5 48t11.5 126q0 97 -14.5 134t-55.5 46q-87 17 -249 17z" />
    <glyph glyph-name="guilsinglleft" unicode="&#x2039;" horiz-adv-x="743" 
d="M330 889l223 -180l-109 -140l232 -413l-293 -156l-315 569z" />
    <glyph glyph-name="guilsinglright" unicode="&#x203a;" horiz-adv-x="753" 
d="M184 750l230 174l270 -346l-319 -578l-297 162l241 426z" />
    <glyph glyph-name="fraction" unicode="&#x2044;" horiz-adv-x="477" 
d="M674 1384l162 -129l-1033 -1273l-159 129z" />
    <glyph glyph-name="divide" unicode="&#x2122;" 
d="M748 449h362v-310h-362v310zM748 1253h362v-309h-362v309zM260 819h1337v-246h-1337v246z" />
    <glyph glyph-name="degree" unicode="&#x2212;" horiz-adv-x="1024" 
d="M545 1370q212 0 276 -45q41 -26 54.5 -79t13.5 -187q0 -138 -17 -190t-71 -78q-73 -33 -320 -33q-202 0 -266 37q-48 30 -63 83t-15 199q0 135 21 188t84 78q70 27 303 27zM500 1206q-98 0 -130 -27t-32 -112q0 -53 4 -78.5t24 -42.5t50 -20.5t92 -3.5q43 0 68.5 1.5
t47 8t32 15.5t17.5 28t9 41t2 59q0 83 -33.5 107t-150.5 24z" />
    <glyph glyph-name="fi" unicode="&#xfb01;" horiz-adv-x="1417" 
d="M0 709v260h186q6 153 29 215.5t92 113.5q74 53 182 73t320 20q241 0 526 -25v-240q-306 21 -444 21q-79 0 -128 -2t-90 -9.5t-62 -18t-36 -32.5t-19.5 -48t-6.5 -68h786v-969h-362v709h-424v-709h-363v709h-186z" />
    <glyph glyph-name="fl" unicode="&#xfb02;" horiz-adv-x="1417" 
d="M0 709v260h186q6 153 29 215.5t92 113.5q74 53 182.5 73t321.5 20q248 0 524 -25v-1366h-362v1147h-84q-119 0 -179.5 -7t-95.5 -24q-37 -19 -49.5 -47t-15.5 -100h330v-260h-330v-709h-363v709h-186z" />
    <glyph glyph-name="mu" horiz-adv-x="1468" 
d="M76 969h362v-443q0 -106 10 -150.5t39 -72.5q32 -31 82.5 -42t153.5 -11q97 0 151.5 12t88.5 41q38 34 50.5 88t12.5 189v389h363v-969h-342v145h-19q-40 -89 -132.5 -129.5t-254.5 -40.5q-132 0 -203 43v-421h-362v1372z" />
    </font>
</defs>
</svg>
